Loading...
Error

Скачать Степфордские жены / The Stepford Wives (Брайан Форбс) [1975, триллер, детектив, DVDRip-AVC] [DVO] торрент без регистрации

 
Статистика раздачи
Размер:  1,81 GB   |    Скачан:  170 раз

Полного источника не было: 6 месяцев

 
Автор Сообщение

leon030982

[] 

Степфордские жены / The Stepford Wives
Страна: США
Жанр: триллер, детектив
Год выпуска: 1975
Продолжительность: 01:56:42
Перевод: Профессиональный (двухголосый закадровый) - НТВ+
Cубтитры: английские
Оригинальная аудиодорожка: английский
Режиссер: Брайан Форбс / Bryan Forbes
В ролях: Кэтрин Росс, Пола Прентисс, Питер Мастерсон, Нанетт Ньюман, Тина Луиз, Кэрол Ив Россен, Уильям Принс, Кэрол Мэлори, Тони Рейд, Джудит Болдуин
Описание:
/фильм снят по одноименной книге А. Левина/
Джоэнна вместе со своей семьей переселяется из суматошного Манхэттена в тихий городок Степфорд. Все хорошо, только женщины здесь странные. Они идеальны: прическа волосок к волоску, примерные хозяйки, стопроцентно преданы мужьям. Только разговоры у них глупые, наподобие рекламы мыла. Чем дальше, тем больше Джоэнна убеждается: что-то в здешних дамах не так, что-то в них нечеловеческое…

Сэмпл: http://multi-up.com/628919 (10 МБ)
Качество видео: DVDRip-AVC
Формат видео: MKV
Видео: H.264, 704x448, ~23.9 fps, ~1788 kbps
Аудио 1: AC3, 48 KHz, 192 Kbps, 2 ch, DVO (НТВ+)
Аудио 2: AC3, 48 KHz, 192 Kbps, 2 ch, Original (ENG)
Субтитры: softsub (English)
E:\Projects\The Stepford Wives\The Stepford Wives.mkv
General
Unique ID : 200769197302217339302511398384412028137 (0x970ABDAB96D3CF5F82664F28B06E6CE9)
Complete name : E:\Projects\The Stepford Wives\The Stepford Wives.mkv
Format : Matroska
Format version : Version 2
File size : 1.81 GiB
Duration : 1h 56mn
Overall bit rate : 2 216 Kbps
Encoded date : UTC 2012-01-13 15:01:24
Writing application : mkvmerge v5.0.1 ('Es ist Sommer') built on Oct 9 2011 11:55:43
Writing library : libebml v1.2.2 + libmatroska v1.3.0
Video #1
ID : 1
Format : AVC
Format/Info : Advanced Video Codec
Format profile : High@L3.0
Format settings, CABAC : Yes
Format settings, ReFrames : 4 frames
Codec ID : V_MPEG4/ISO/AVC
Bit rate : 1 788 Kbps
Width : 704 pixels
Height : 448 pixels
Display aspect ratio : 1.862
Frame rate mode : Variable
Color space : YUV
Chroma subsampling : 4:2:0
Bit depth : 8 bits
Scan type : Progressive
Writing library : x264 core 118 r2085 8a62835
Encoding settings : cabac=1 / ref=3 / deblock=1:0:0 / analyse=0x3:0x113 / me=hex / subme=7 / psy=1 / psy_rd=1.00:0.00 / mixed_ref=1 / me_range=16 / chroma_me=1 / trellis=1 / 8x8dct=1 / cqm=0 / deadzone=21,11 / fast_pskip=1 / chroma_qp_offset=-2 / threads=1 / sliced_threads=0 / nr=0 / decimate=1 / interlaced=0 / bluray_compat=0 / constrained_intra=0 / bframes=3 / b_pyramid=2 / b_adapt=1 / b_bias=0 / direct=1 / weightb=1 / open_gop=0 / weightp=2 / keyint=250 / keyint_min=23 / scenecut=40 / intra_refresh=0 / rc_lookahead=40 / rc=crf / mbtree=1 / crf=20.5 / qcomp=0.60 / qpmin=0 / qpmax=69 / qpstep=4 / ip_ratio=1.40 / aq=1:1.00
Language : English
Default : Yes
Forced : No
Audio #2
ID : 2
Format : AC-3
Format/Info : Audio Coding 3
Mode extension : CM (complete main)
Codec ID : A_AC3
Duration : 1h 56mn
Bit rate mode : Constant
Bit rate : 192 Kbps
Channel(s) : 2 channels
Channel positions : Front: L R
Sampling rate : 48.0 KHz
Bit depth : 16 bits
Compression mode : Lossy
Stream size : 160 MiB (9%)
Title : Закадровый (НТВ+)
Language : Russian
Default : Yes
Forced : No
Audio #3
ID : 3
Format : AC-3
Format/Info : Audio Coding 3
Mode extension : CM (complete main)
Codec ID : A_AC3
Duration : 1h 56mn
Bit rate mode : Constant
Bit rate : 192 Kbps
Channel(s) : 2 channels
Channel positions : Front: L R
Sampling rate : 48.0 KHz
Bit depth : 16 bits
Compression mode : Lossy
Stream size : 160 MiB (9%)
Title : Оригинал
Language : English
Default : No
Forced : No
Text #4
ID : 4
Format : UTF-8
Codec ID : S_TEXT/UTF8
Codec ID/Info : UTF-8 Plain Text
Title : Английские
Language : English
Default : Yes
Forced : No



Скачать Степфордские.жены.The.Stepford.Wives.(Брайан.Форбс).[1975.триллер.детектив.DVDRip-AVC].[DVO].torrent без регистрации
Золото ЗОЛОТАЯ РАЗДАЧА! СКАЧАННОЕ НЕ ЗАСЧИТЫВАЕТСЯ! Золото
Дата: Зарегистрирован   [ Тип: внутренний ] Как тут cкачать?
MAGNET ссылка
MAGNET ссылка


Скачать .torrent

19 KB

Статус: проверено
Скачан: торрент - 170 раз, раздача полностью - 181 раз
Размер: 1,81 GB
Оценка:  - (Голосов: 0)
Поблагодарили: 2
Поделиться ссылкой на эту раздачу с друзьями:
В контактеFacebookОдноклассникиTwitterLivejournalМой МирLiveinternet
 

 
Показать сообщения:    


Вы не можете начинать темы
Вы не можете отвечать на сообщения
Вы не можете редактировать свои сообщения
Вы не можете удалять свои сообщения
Вы не можете голосовать в опросах
Вы не можете прикреплять файлы к сообщениям
Вы можете скачивать файлы