Loading...
Error

Скачать Синьор Робинзон / Il Signor Robinson, mostruosa storia d'amore e d'avventure / Robinson Jr. (Серджио Корбуччи ) [1976, Комедия, DVDRip] [Dub] + [MVO] торрент без регистрации

 
Статистика раздачи
Размер:  1,72 GB   |    Скачан:  167 раз

Полного источника не было: 10 месяцев

 
Автор Сообщение

leon030982

[] 

Синьор Робинзон / Il Signor Robinson, mostruosa storia d'amore e d'avventure / Robinson Jr.
Страна: Италия
Жанр: Комедия
Год выпуска: 1976
Продолжительность: 01:43:17
Перевод: Профессиональный (дублированный) + вставки MVO, в вырезаных местах.
Перевод 2: Профессиональный (многоголосый закадровый)
Cубтитры: русские
Оригинальная аудиодорожка: итальянский
Режиссер: Серджио Корбуччи
В ролях: Паоло Вилладжио (Paolo Villaggio), Зеуди Арая (Zeudi Araya Cristaldi), Анна Ногара (Anna Nogara), Перси Хоган (Percy Hogan)
Описание: Робинзон Крузо проходит через множество комичных ситуаций, пока ему не удается хоть как-то освоиться на острове. У него появляется даже Пятница — только на этот раз это темнокожая красавица, с которой Робинзон поначалу тщетно пытается найти общий язык.
Современный Робинзон не хочет отказываться от благ цивилизации и придумывает, как заменить телевизор, радио и все то, без чего в наше время трудно представить свою жизнь…

Доп. информация: За исходник спасибо saslik
Релиз
General
Complete name : E:\Синьор Робинзон - Il Signor Robinson, mostruosa storia d'amore e d'avventure\Синьор Робинзон - Il Signor Robinson, mostruosa storia d'amore e d'avventure.avi
Format : AVI
Format/Info : Audio Video Interleave
File size : 1.44 GiB
Duration : 1h 43mn
Overall bit rate : 1 998 Kbps
Writing application : VirtualDubMod 1.5.10.2 (build 2540/release)
Writing library : VirtualDubMod build 2540/release
Video
ID : 0
Format : MPEG-4 Visual
Format profile : Advanced Simple@L5
Format settings, BVOP : 1
Format settings, QPel : No
Format settings, GMC : No warppoints
Format settings, Matrix : Custom
Codec ID : XVID
Codec ID/Hint : XviD
Duration : 1h 43mn
Bit rate : 1 797 Kbps
Width : 720 pixels
Height : 400 pixels
Display aspect ratio : 16:9
Frame rate : 25.000 fps
Color space : YUV
Chroma subsampling : 4:2:0
Bit depth : 8 bits
Scan type : Progressive
Compression mode : Lossy
Bits/(Pixel*Frame) : 0.250
Stream size : 1.30 GiB (90%)
Writing library : XviD 1.2.1 (UTC 2008-12-04)
Audio
ID : 1
Format : AC-3
Format/Info : Audio Coding 3
Mode extension : CM (complete main)
Codec ID : 2000
Duration : 1h 43mn
Bit rate mode : Constant
Bit rate : 192 Kbps
Channel(s) : 2 channels
Channel positions : Front: L R
Sampling rate : 48.0 KHz
Bit depth : 16 bits
Compression mode : Lossy
Stream size : 142 MiB (10%)
Alignment : Split accross interleaves
Interleave, duration : 40 ms (1.00 video frame)
Interleave, preload duration : 500 ms
Качество видео: DVDRip
Формат видео: AVI
Видео: 720x400 (1.80:1), 25 fps, XviD build 50 ~1796 kbps avg, 0.25 bit/pixel
Аудио: 48 kHz, AC3 Dolby Digital, 2/0 (L,R) ch, ~192 kbps DUB
Аудио 2: 48 kHz, AC3 Dolby Digital, 2/0 (L,R) ch, ~192 kbps MVO (отдельно)
Аудио 3: 48 kHz, AC3 Dolby Digital, 2/0 (L,R) ch, ~192 kbps Original (отдельно)
Формат субтитров: softsub (SRT)



Скачать Синьор.Робинзон.Il.Signor.Robinson.mostruosa.storia.d'amore.e.d'avventure.Robinson.Jr.(Серджио.Корбуччи.).[1976.Комедия.DVDRip].[Dub].+.[MVO].torrent без регистрации
Золото ЗОЛОТАЯ РАЗДАЧА! СКАЧАННОЕ НЕ ЗАСЧИТЫВАЕТСЯ! Золото
Дата: Зарегистрирован   [ Тип: внутренний ] Как тут cкачать?
MAGNET ссылка
MAGNET ссылка


Скачать .torrent

18 KB

Статус: проверено
Скачан: торрент - 167 раз, раздача полностью - 34 раз
Размер: 1,72 GB
Оценка:  5 (Голосов: 1)
Поблагодарили: 5
Поделиться ссылкой на эту раздачу с друзьями:
В контактеFacebookОдноклассникиTwitterLivejournalМой МирLiveinternet
 

 
Показать сообщения:    


Вы не можете начинать темы
Вы не можете отвечать на сообщения
Вы не можете редактировать свои сообщения
Вы не можете удалять свои сообщения
Вы не можете голосовать в опросах
Вы не можете прикреплять файлы к сообщениям
Вы можете скачивать файлы