Loading...
Error

Скачать Морские дьяволы / Sea Devils (Рауль Уолш) [1953, исторический, приключения, DVDRip] [VO] торрент без регистрации

 
Статистика раздачи
Размер:  1,37 GB   |    Скачан:  164 раза
Сидов:  1  [  0 KB/s  ]  
 
Автор Сообщение

leon030982

[] 

Морские дьяволы / Sea Devils
Страна: США, Великобритания
Жанр: Исторический, приключения
Год выпуска: 1953
Продолжительность: 01:26:25
Перевод: Одноголосый закадровый
Cубтитры: нет
Режиссер: Рауль Уолш
В ролях: Рок Хадсон, Ивонн Де Карло, Максвелл Рид, Дэнис О'Ди, Майкл Гудлифф, Брайан Форбс, Жак Бернар Брюниюс, Айвор Барнард, Артур Уонтнер, Жерар Ури, Ларри Тейлор, Кит Пайотт, Майкл Малкастер
Описание: По мотивам романа Виктора Гюго "Труженики моря".
Гернси, 1804 год. Английский контрабандист Жильят на своем корабле отвозит во Францию молодую француженку, которая рассказывает, что якобы ищет брата, пропавшего, когда вся ее семья была перебита. На самом деле девушка - шпионка на службе у англичан. Она выдает себя за французскую графиню, своего двойника, и должна таким образом добыть сведения о наполеоновском флоте и планах вторжения в Англию. Жильят понимает, что девушка, в которую он тем временем успел влюбиться, ему врала. Но он ошибается на ее счет, полагая, что она работает на французов. Он похищает француженку и отвозит в Англию, поставив под удар ее миссию, поскольку на следующий день в своем замке - т.е. в замке графини, чье имя она позаимствовала, - она должна принять Наполеона со всем его штабом. Девушка возвращается во Францию на судне контрабандиста Рантена, конкурента Жильята...

Рауль Уолш - режиссер, актер, сценарист, продюсер, оператор. Начал карьеру в 1909 году как театральный актер, но скоро пришел в кинематограф. В его вестерне «Большая тропа» (1930) сыграл свою первую главную роль тогда малоизвестный актер Мэрион Моррисон, которому Уолш придумал псевдоним Джон Уэйн. В 1939 году Уолш перешел из Paramount Pictures в студию Warner Brothers, где снял множество фильмов. Рауль Уолш - один из соучредителей Американской академии киноискусств.
Ивонн Де Карло является обладательницей двух звезд на Голливудской аллее славы - за вклад в кино и телевидение.
Рок Хадсон в 1948 году сыграл в фильме «Эскадрилья истребителей», после чего подписал контракт с «Universal International». В 1952 году получил свою первую главную роль в вестерне «Алый Ангел», где его партнершей была Ивонн Де Карло.
Доп. информация:
Перевод: Ketsalk
Озвучка: erogg (за что ему огромное спасибо)
Качество видео: DVDRip
Формат видео: AVI
Видео: Xvid 704x512 25.00fps 2124kbps
Аудио: Dolby AC3 48000Hz stereo 128kbps
General
Complete name : Sea Devils.1953.Ketsalk.DVDRip\Sea Devils.1953.Ketsalk.DVDRip.avi
Format : AVI
Format/Info : Audio Video Interleave
File size : 1.37 GiB
Duration : 1h 26mn
Overall bit rate : 2 262 Kbps
Writing application : VirtualDubMod 1.5.10.2 (build 2542/release)
Writing library : VirtualDubMod build 2542/release
Video
ID : 0
Format : MPEG-4 Visual
Format profile : Advanced Simple@L5
Format settings, BVOP : Yes
Format settings, QPel : No
Format settings, GMC : No warppoints
Format settings, Matrix : Default (H.263)
Muxing mode : Packed bitstream
Codec ID : XVID
Codec ID/Hint : XviD
Duration : 1h 26mn
Bit rate : 2 124 Kbps
Width : 704 pixels
Height : 512 pixels
Display aspect ratio : 1.375
Frame rate : 25.000 fps
Resolution : 8 bits
Colorimetry : 4:2:0
Scan type : Progressive
Bits/(Pixel*Frame) : 0.236
Stream size : 1.28 GiB (94%)
Writing library : XviD 1.1.0 (UTC 2005-11-22)
Audio
ID : 1
Format : AC-3
Format/Info : Audio Coding 3
Codec ID : 2000
Duration : 1h 26mn
Bit rate mode : Constant
Bit rate : 128 Kbps
Channel(s) : 2 channels
Channel positions : L R
Sampling rate : 48.0 KHz
Stream size : 79.1 MiB (6%)
Alignment : Split accross interleaves
Interleave, duration : 40 ms (1.00 video frame)
Interleave, preload duration : 500 ms



Скачать Морские.дьяволы.Sea.Devils.(Рауль.Уолш).[1953.исторический.приключения.DVDRip].[VO].torrent без регистрации
Золото ЗОЛОТАЯ РАЗДАЧА! СКАЧАННОЕ НЕ ЗАСЧИТЫВАЕТСЯ! Золото
Дата: Зарегистрирован   [ Тип: внутренний ] Как тут cкачать?
MAGNET ссылка
MAGNET ссылка


Скачать .torrent

14 KB

Статус: проверено DHT
Скачан: торрент - 164 раз, раздача полностью - 50 раз
Размер: 1,37 GB
Оценка:  - (Голосов: 0)
Поблагодарили: 2
Поделиться ссылкой на эту раздачу с друзьями:
В контактеFacebookОдноклассникиTwitterLivejournalМой МирLiveinternet
 

 
Показать сообщения:    


Вы не можете начинать темы
Вы не можете отвечать на сообщения
Вы не можете редактировать свои сообщения
Вы не можете удалять свои сообщения
Вы не можете голосовать в опросах
Вы не можете прикреплять файлы к сообщениям
Вы можете скачивать файлы