Loading...
Error

Скачать Недотепы / Легавые / Fuzz (Ричард Э. Колла) [1972, комедия, криминал, DVDRip] [MVO] торрент без регистрации

 
Статистика раздачи
Размер:  702 MB   |    Скачан:  140 раз
Сидов:  1  [  0 KB/s  ]  
 
Автор Сообщение

leon030982

[] 

Недотепы / Легавые / Fuzz
Страна: США
Жанр: комедия, криминал
Год выпуска: 1972
Продолжительность: 01:32:50
Перевод: Профессиональный (многоголосый закадровый)
Cубтитры: нет
Режиссер: Ричард Э. Колла
В ролях: Берт Рейнольдс, Юл Бриннер, Рэкел Уэлч, Том Скерритт, Джек Уэстон
Описание: Фильм снят по мотивам одного из романов Эда Макбейна о 87-м полицейском участке. Действие, правда, перенесено в Бостон. Виртуозный преступник, известный под кличкой Глухой, шантажирует детективов 87-участка и Стив Карелла, чтобы вычислить его, вынужден преображаться в бродягу...

Качество видео: DVDRip
Формат видео: AVI
Видео: 624x336 (1.86:1), 23.976 fps, XviD MPEG-4 ~785 kbps avg, 0.16 bit/pixel
Аудио 1: русский: 48 kHz, MPEG Layer 3, 2 ch, ~128.00 kbps avg
Аудио 2: английский: 48 kHz, MPEG Layer 3, 2 ch, ~128.00 kbps avg
General
Complete name : J:\Films\Nedotyupi.700.pretenders.avi
Format : AVI
Format/Info : Audio Video Interleave
File size : 702 MiB
Duration : 1h 32mn
Overall bit rate : 1 056 Kbps
Writing application : FairUse Wizard
Writing library : The best and REALLY easy backup tool
Video
ID : 0
Format : MPEG-4 Visual
Format profile : Advanced Simple@L5
Format settings, BVOP : Yes
Format settings, QPel : No
Format settings, GMC : No warppoints
Format settings, Matrix : Default (H.263)
Muxing mode : Packed bitstream
Codec ID : XVID
Codec ID/Hint : XviD
Duration : 1h 32mn
Bit rate : 786 Kbps
Width : 624 pixels
Height : 336 pixels
Display aspect ratio : 1.857
Frame rate : 23.976 fps
Resolution : 8 bits
Colorimetry : 4:2:0
Scan type : Progressive
Bits/(Pixel*Frame) : 0.156
Stream size : 522 MiB (74%)
Writing library : XviD 1.1.0 (UTC 2005-11-22)
Audio #1
ID : 1
Format : MPEG Audio
Format version : Version 1
Format profile : Layer 3
Mode : Joint stereo
Format_Settings_ModeExtension : MS Stereo
Codec ID : 55
Codec ID/Hint : MP3
Duration : 1h 32mn
Bit rate mode : Constant
Bit rate : 128 Kbps
Channel(s) : 2 channels
Sampling rate : 48.0 KHz
Stream size : 85.0 MiB (12%)
Alignment : Aligned on interleaves
Interleave, duration : 42 ms (1.00 video frame)
Interleave, preload duration : 504 ms
Writing library : LAME3.97b
Encoding settings : -m j -V 4 -q 2 -lowpass 17 -b 128
Audio #2
ID : 2
Format : MPEG Audio
Format version : Version 1
Format profile : Layer 3
Mode : Joint stereo
Format_Settings_ModeExtension : MS Stereo
Codec ID : 55
Codec ID/Hint : MP3
Duration : 1h 32mn
Bit rate mode : Constant
Bit rate : 128 Kbps
Channel(s) : 2 channels
Sampling rate : 48.0 KHz
Stream size : 85.0 MiB (12%)
Alignment : Aligned on interleaves
Interleave, duration : 42 ms (1.00 video frame)
Interleave, preload duration : 504 ms
Writing library : LAME3.97b
Encoding settings : -m j -V 4 -q 2 -lowpass 17 -b 128



Скачать Недотепы.Легавые.Fuzz.(Ричард.Э.Колла).[1972.комедия.криминал.DVDRip].[MVO].torrent без регистрации
Золото ЗОЛОТАЯ РАЗДАЧА! СКАЧАННОЕ НЕ ЗАСЧИТЫВАЕТСЯ! Золото
Дата: Зарегистрирован   [ Тип: внутренний ] Как тут cкачать?
MAGNET ссылка
MAGNET ссылка


Скачать .torrent

28 KB

Статус: проверено DHT
Скачан: торрент - 140 раз, раздача полностью - 5 раз
Размер: 702 MB
Оценка:  - (Голосов: 0)
Поблагодарили: 2
Поделиться ссылкой на эту раздачу с друзьями:
В контактеFacebookОдноклассникиTwitterLivejournalМой МирLiveinternet
 

 
Показать сообщения:    


Вы не можете начинать темы
Вы не можете отвечать на сообщения
Вы не можете редактировать свои сообщения
Вы не можете удалять свои сообщения
Вы не можете голосовать в опросах
Вы не можете прикреплять файлы к сообщениям
Вы можете скачивать файлы