Loading...
Error

Скачать Подпольная империя / Boardwalk Empire (Полный 3-ий сезон) (Тимоти Ван Паттен, Аллен Култер, Джереми Подесва) [2012, драма, криминал, WEB-DL] [1080p] [AVO] (Ю. Сербин) торрент без регистрации

 
Статистика раздачи
Размер:  27,99 GB   |    Скачан:  338 раз
Сидов:  1  [  0 KB/s  ]   Личеров:  1  [  25 KB/s  ]  
 
Автор Сообщение

leon030982

[] 

Подпольная империя / Boardwalk Empire
Год выпуска: 2012
Страна: США
Жанр: Криминальная драма
Продолжительность: ~00:58:00
Перевод: Авторский (одноголосый закадровый) - Ю. Сербин
Cубтитры: нет

Режиссёр: Тимоти Ван Паттен

В ролях: Стив Бушеми (Enoch «Nucky» Thompson), Майкл Питт (James «Jimmy» Darmody), Ши Уигхэм (Elias «Eli» Thompson), Майкл Шеннон (Agent Nelson Van Alden), Келли Макдоналд (Margaret Schroeder), Алекса Палладино (Angela Darmody), Майкл Сталберг (Arnold Rothstein), Стивен Грэм (Al Capone), Винсент Пьяцца, Пас де ла Уэрта (Lucy Danziger) и др.

Описание: События сериала Boardwalk Empire происходят в 1920, начале 1930 годов, во время рассвета сухого закона и итальянской мафии. В сериале представлены такие знаменитости криминального мира, как Сальваторе «Счастливчик» Лучиано и Аль Капоне. Главные герои, Наки Томпсон (в исполнении Стива Бушеми) – негласный правитель Атлантик-Сити, в равной степени гангстер и политик и его помошник Джимми Дармоди (Майкл Питт). Зрители сериала окунутся в грязный мир политики и игорного бизнеса, мафиозных разборок и зажигательного варьете.
Сериал снят по мотивам романа Нельсона Джонсона, посвященной зарождению одного из крупнейших игорных центров США — Атлантик-Сити. Роли в сериале исполняют мировые знаменитости — Стив Бушеми, Келли МакДональд, Майкл Шеннон, Майкл К. Уильямс и другие. Станет ли «Boardwalk Empire» таким же незабываемым сериалом как «The Sopranos» или «The Wire» покажет время.




Сэмпл
Качество: WEB-DL 1080p
Формат: MKV
Видео кодек: H.264
Аудио кодек: AC3
Видео: AVC, 1920x1080, 23.976 fps, ~5 197 Kbps avg, 0.105 bit/pixel
Аудио Rus: AC3, 48.0 KHz, 6 ch, ~384 Kbps (Сербин)
Аудио Eng: AC3, 48.0 KHz, 6 ch, ~384 Kbps
General
Unique ID : 170229544585545812386985698773606441060 (0x8011048A319EB87E8A9385BC59A1A064)
Complete name : E:\video\serials\Boardwalk.Empire.S03.1080p.WEB-DL.Rus.Eng.Serbin\Boardwalk.Empire.s03e01.1080p.WEB-DL.Rus.Eng.Serbin.mkv
Format : Matroska
Format version : Version 2
File size : 2.42 GiB
Duration : 56mn 59s
Overall bit rate : 6 086 Kbps
Movie name : Boardwalk.Empire.S03E01.1080p.WEB.DL.DD5.1.H.264.KiNGS.mkv 7518
Encoded date : UTC 2012-10-09 08:28:42
Writing application : mkvmerge v5.8.0 ('No Sleep / Pillow') built on Sep 2 2012 15:37:04
Writing library : libebml v1.2.3 + libmatroska v1.3.0
Video
ID : 1
Format : AVC
Format/Info : Advanced Video Codec
Format profile : High@L4.0
Format settings, CABAC : Yes
Format settings, ReFrames : 4 frames
Codec ID : V_MPEG4/ISO/AVC
Duration : 56mn 59s
Bit rate : 5 197 Kbps
Width : 1 920 pixels
Height : 1 080 pixels
Display aspect ratio : 16:9
Frame rate mode : Constant
Frame rate : 23.976 fps
Color space : YUV
Chroma subsampling : 4:2:0
Bit depth : 8 bits
Scan type : Progressive
Bits/(Pixel*Frame) : 0.105
Stream size : 2.07 GiB (85%)
Language : English
Default : Yes
Forced : No
Color primaries : BT.709
Transfer characteristics : BT.709
Matrix coefficients : BT.709
Audio #1
ID : 2
Format : AC-3
Format/Info : Audio Coding 3
Mode extension : CM (complete main)
Format settings, Endianness : Big
Codec ID : A_AC3
Duration : 56mn 59s
Bit rate mode : Constant
Bit rate : 384 Kbps
Channel(s) : 6 channels
Channel positions : Front: L C R, Side: L R, LFE
Sampling rate : 48.0 KHz
Bit depth : 16 bits
Compression mode : Lossy
Stream size : 157 MiB (6%)
Title : Serbin
Language : Russian
Default : Yes
Forced : No
Audio #2
ID : 3
Format : AC-3
Format/Info : Audio Coding 3
Mode extension : CM (complete main)
Format settings, Endianness : Big
Codec ID : A_AC3
Duration : 56mn 59s
Bit rate mode : Constant
Bit rate : 384 Kbps
Channel(s) : 6 channels
Channel positions : Front: L C R, Side: L R, LFE
Sampling rate : 48.0 KHz
Bit depth : 16 bits
Compression mode : Lossy
Stream size : 157 MiB (6%)
Language : English
Default : No
Forced : No
1.Resolution / Обещание
2.Spaghetti & Coffee / Спагетти и кофе
3.Bone for Tuna / Кость для Тунца
4.Blue Bell Boy / Мальчик-колокольчик
5.You'd Be Surprised / Ты будешь удивлен
Внимание! Раздача ведётся путём добавления новых серий; при каждом добавлении создётся новый торрент. Чтобы начать докачку новой серии, пользователям необходимо сделать следующее:
(1) остановить скачивание,
(2) удалить старый торрент у себя из клиента (старые серии удалять не надо),
(3) скачать новый торрент и запустить его у себя в клиенте вместо старого, при этом указать клиенту путь в старую папку куда и должно происходить скачивание новых серий.
Ваш клиент при этом должен произвести хеширование (проверку) старой папки (если не производит сам - помогите ему сделать это), и будет докачивать только те серии которых у вас ещё нет. Старые серии при этом не удаляются, а продолжают раздаваться!
Eсли вы уже удалили старые серии, то предотвратить повторную закачку старых серий можно, отжав галочку в соответсвующих местах при запуске нового торрента. По возможности, желательно не удалять старые серии как можно дольше чтобы релизёр не столько продолжал раздавать старые серии, а смог сконцентрироваться на новых.
04.12.12 добавлена финальная 12-я серия!Сезон завершен!



Скачать Подпольная.империя.Boardwalk.Empire.(Полный.3-ий.сезон).(Тимоти.Ван.Паттен.Аллен.Култер.Джереми.Подесва).[2012.драма.криминал.WEB-DL].[1080p].[AVO].(Ю.Сербин).torrent без регистрации
Золото ЗОЛОТАЯ РАЗДАЧА! СКАЧАННОЕ НЕ ЗАСЧИТЫВАЕТСЯ! Золото
Дата: Зарегистрирован   [ Тип: внутренний ] Как тут cкачать?
MAGNET ссылка
MAGNET ссылка


Скачать .torrent

141 KB

Статус: проверено DHT
Скачан: торрент - 338 раз, раздача полностью - 143 раз
Размер: 27,99 GB
Оценка:  5 (Голосов: 1)
Поблагодарили: 1
Поделиться ссылкой на эту раздачу с друзьями:
В контактеFacebookОдноклассникиTwitterLivejournalМой МирLiveinternet
 

 
Показать сообщения:    


Вы не можете начинать темы
Вы не можете отвечать на сообщения
Вы не можете редактировать свои сообщения
Вы не можете удалять свои сообщения
Вы не можете голосовать в опросах
Вы не можете прикреплять файлы к сообщениям
Вы можете скачивать файлы