Loading...
Error

Скачать Падение Римской Империи / The Fall Of The Roman Empire (Энтони Манн) [1964 г., исторический, BDRip-AVC] [MVO] торрент без регистрации

 
Статистика раздачи
Размер:  2,89 GB   |    Скачан:  123 раза
Сидов:  1  [  0 KB/s  ]  
 
Автор Сообщение

leon030982

[] 

Падение Римской Империи / The Fall Of The Roman Empire

Год выпуска: 1964
Выпущено: Samuel Bronston Productions
Жанр: Драма, Исторический
Продолжительность: 02:59:57
Перевод: Профессиональный (многоголосый, закадровый)
Субтитры:нет
Режиссер: Энтони Манн
В ролях: Софи Лорен /Sophia Loren, Стивен Бойд /Stephen Boyd/, Джеймс Мэйсон /James Mason/, Омар Шариф /Omar Sharif/, Алек Гиннесс /Alec Guinness/, Энтони Куэйл /Anthony Quayle/
Описание: Великий цезарь Марк Аврелий умирает от чумы. В преемники ему прочат участника многих успешных военных кампаний, славного полководца Ливия, который, терзаемый сомнениями, делится этим известием с Коммодом, родным сыном цезаря и своим другом. Уделяющий слишком много времени развлечениям, Коммод - по мнению отца, плохой кандидат на столь ответственный государственный пост. Но повеса такого "предательства" не ожидал. С помощью сочувствующих ему интриганов он избавляется от старика и автоматически занимает трон, проводя политику войны вопреки стратегии Марка Аврелия. Ливий, находясь в опале, пытается оказывать ему противодействие через сенат, но развал Империи уже начался....
User Rating: 6.967/10 (30)
Imdb: 6.6/10 (2,869 votes)

Качество: BDRip-AVC (The Fall of the Roman Empire 1964 remux.mkv)
Формат: MKV
Видео:1120x476 (2.35:1), 23.976 fps, AVC, ~1847 Kbps, 0.144 bits/pixel
Аудио:48 kHz, AC3 Dolby Digital, 3/2 (L,C,R,l,r) + LFE ch, ~448 kbps RUS
• Голливудский постановочный исторический боевик Энтони Мэнна, снятый уже на исходе большой моды на американские версии жанра «пеплум», любопытно пересмотреть именно сейчас, после того, как «Гладиатор» Ридли Скотта вновь возродил давно утраченный интерес публики к грандиозным зрелищам из античных времён. Тем более что оба фильма перекликаются даже сюжетно — в «Падении Римской империи» военачальник по имени Ливий пытается в своей деятельности по расширению и укреплению владений империи следовать наставлениям Марка Аврелия, но после прихода к власти Коммода это становится всё более затруднительным.
Однако по сравнению с недавним «Гладиатором», пусть и реализованным не с таким уж эпическим размахом, без привлечения огромной массовки и с упованием на преимущества отнюдь не рукотворного, а компьютерно выстроенного экранного действа, лента более чем сорокалетней давности с участием международного ансамбля актёров покажется не только устаревшей и тяжеловесной. К сожалению, она лишена, прежде всего, живой энергетики и поневоле воспринимается как картина заката былой славы Голливуда, в том числе — в деле создания величественных киноспектаклей о Древнем Риме. Между прочим, фильм Мэнна провалился в американском прокате, собрав в четыре раза меньше своего бюджета в размере $19 млн. (в сегодняшнем эквиваленте — примерно $138 млн.), причём миллион долларов неизвестно за что достался Софии Лорен: тогда она стала второй в истории кино, после Элизабет Тейлор в «Клеопатре», актрисой с миллионным гонораром.
2005.
General
Unique ID : 222344242283975178374192108482514675308 (0xA745F183D231629A9D3BACCE20F8666C)
Complete name : E:\Downloads\The Fall of the Roman Empire.chopper887.mkv
Format : Matroska
File size : 2.89 GiB
Duration : 2h 59mn
Overall bit rate : 2 297 Kbps
Movie name : The Fall of the Roman Empire.chopper887
Encoded date : UTC 2012-01-15 12:43:55
Writing application : mkvmerge v4.8.0 ('I Got The...') сборка от May 24 2011 03:12:58
Writing library : libebml v1.2.0 + libmatroska v1.1.0
Video
ID : 1
Format : AVC
Format/Info : Advanced Video Codec
Format profile : High@L4.0
Format settings, CABAC : Yes
Format settings, ReFrames : 10 frames
Codec ID : V_MPEG4/ISO/AVC
Duration : 2h 59mn
Bit rate : 1 847 Kbps
Width : 1 120 pixels
Height : 476 pixels
Display aspect ratio : 2.35:1
Frame rate : 23.976 fps
Color space : YUV
Chroma subsampling : 4:2:0
Bit depth : 8 bits
Scan type : Progressive
Bits/(Pixel*Frame) : 0.144
Stream size : 2.27 GiB (79%)
Title : The Fall of the Roman Empire.chopper887
Writing library : x264 core 116 r2074 2641b9e
Encoding settings : cabac=1 / ref=10 / deblock=1:-2:-1 / analyse=0x3:0x133 / me=umh / subme=11 / psy=1 / psy_rd=0.90:0.00 / mixed_ref=1 / me_range=32 / chroma_me=1 / trellis=2 / 8x8dct=1 / cqm=0 / deadzone=21,11 / fast_pskip=0 / chroma_qp_offset=-2 / threads=12 / sliced_threads=0 / nr=0 / decimate=1 / interlaced=0 / bluray_compat=0 / constrained_intra=0 / bframes=5 / b_pyramid=2 / b_adapt=1 / b_bias=0 / direct=3 / weightb=1 / open_gop=0 / weightp=2 / keyint=250 / keyint_min=23 / scenecut=40 / intra_refresh=0 / rc_lookahead=80 / rc=2pass / mbtree=1 / bitrate=1847 / ratetol=1.0 / qcomp=0.60 / qpmin=0 / qpmax=69 / qpstep=4 / cplxblur=20.0 / qblur=0.5 / ip_ratio=1.40 / aq=1:1.00
Language : English
Audio
ID : 2
Format : AC-3
Format/Info : Audio Coding 3
Mode extension : CM (complete main)
Codec ID : A_AC3
Duration : 2h 59mn
Bit rate mode : Constant
Bit rate : 448 Kbps
Channel(s) : 6 channels
Channel positions : Front: L C R, Side: L R, LFE
Sampling rate : 48.0 KHz
Bit depth : 16 bits
Compression mode : Lossy
Stream size : 577 MiB (20%)
Title : MVO



Скачать Падение.Римской.Империи.The.Fall.Of.The.Roman.Empire.(Энтони.Манн).[1964.г.исторический.BDRip-AVC].[MVO].torrent без регистрации
Золото ЗОЛОТАЯ РАЗДАЧА! СКАЧАННОЕ НЕ ЗАСЧИТЫВАЕТСЯ! Золото
Дата: Зарегистрирован   [ Тип: внутренний ] Как тут cкачать?
MAGNET ссылка
MAGNET ссылка


Скачать .torrent

15 KB

Статус: проверено DHT
Скачан: торрент - 123 раз, раздача полностью - 15 раз
Размер: 2,89 GB
Оценка:  - (Голосов: 0)
Поблагодарили: 2
Поделиться ссылкой на эту раздачу с друзьями:
В контактеFacebookОдноклассникиTwitterLivejournalМой МирLiveinternet
 

 
Показать сообщения:    


Вы не можете начинать темы
Вы не можете отвечать на сообщения
Вы не можете редактировать свои сообщения
Вы не можете удалять свои сообщения
Вы не можете голосовать в опросах
Вы не можете прикреплять файлы к сообщениям
Вы можете скачивать файлы