Loading...
Error

Скачать Чарли / Charly (Ральф Нельсон) [1968, фантастика, драма, DVDRip] [VO] торрент без регистрации

 
Статистика раздачи
Размер:  1,45 GB   |    Скачан:  256 раз
Сидов:  1  [  0 KB/s  ]  
 
Автор Сообщение

leon030982

[] 

Чарли / Charly

Год выпуска: 1968
Страна: США
Жанр: фантастика, драма
Продолжительность: 1:43:37
Перевод: Одноголосый закадровый - Хамстер.
Cубтитры: русские
Режиссер: Ральф Нельсон / Ralph Nelson
В ролях: Клифф Робертсон, Клер Блум, Лилия Скала, Леон Дженни, Рут Уайт, Дик Ван Пэттен, Эдвард МакНалли, Барни Мартин, Уильям Двайер, Дэн Морган
Описание: Чарли Гордон имеет тело взрослого человека, но мозг ребенка. По результатам тестов в интеллектуальном развитии его превосходит даже мышь. Но экспериментальная операция дает ему мозг, соответствующий его возрасту. Чарли очень быстро учится контролировать свои импульсы и порывы…
4 награды и 4 номинации

Раздача от:

Доп. информация: Перевод субтитров - . Озвучка - . Рип с диска DVD5 ( за источник спасибо DarkAcid (TIK)).
Качество видео: DVDRip
Формат видео: AVI
Видео: 704x304 (2.35:1) 23.976 fps XviD 1604Kbps
Аудио: AC-3 48KHz Stereo 192Kbps русский
Аудио 2: AC-3 48KHz Stereo 192Kbps английский
malky@malky-desktop:/media/video/Kwork$ mediainfo /media/m/Charly.1968.DVDRip.by.Malky.AllFilms.rutracker.org/Charly.1968.DVDRip.by.Malky.AllFilms.rutracker.org.avi
General
Complete name : /media/m/Charly.1968.DVDRip.by.Malky.AllFilms.rutracker.org/Charly.1968.DVDRip.by.Malky.AllFilms.rutracker.org.avi
Format : AVI
Format/Info : Audio Video Interleave
File size : 1.45 GiB
Duration : 1h 43mn
Overall bit rate : 2 002 Kbps
Video
ID : 0
Format : MPEG-4 Visual
Format profile : Advanced Simple@L5
Format settings, BVOP : 2
Format settings, QPel : No
Format settings, GMC : No warppoints
Format settings, Matrix : Custom
Codec ID : XVID
Codec ID/Hint : XviD
Duration : 1h 43mn
Bit rate : 1 604 Kbps
Width : 704 pixels
Height : 304 pixels
Display aspect ratio : 2.35:1
Frame rate : 23.976 fps
Color space : YUV
Chroma subsampling : 4:2:0
Bit depth : 8 bits
Scan type : Progressive
Compression mode : Lossy
Bits/(Pixel*Frame) : 0.313
Stream size : 1.16 GiB (80%)
Writing library : XviD 64
Audio #1
ID : 1
Format : AC-3
Format/Info : Audio Coding 3
Mode extension : CM (complete main)
Codec ID : 2000
Duration : 1h 43mn
Bit rate mode : Constant
Bit rate : 192 Kbps
Channel(s) : 2 channels
Channel positions : Front: L R
Sampling rate : 48.0 KHz
Bit depth : 16 bits
Compression mode : Lossy
Stream size : 142 MiB (10%)
Alignment : Aligned on interleaves
Interleave, duration : 42 ms (1.00 video frame)
Audio #2
ID : 2
Format : AC-3
Format/Info : Audio Coding 3
Mode extension : CM (complete main)
Codec ID : 2000
Duration : 1h 43mn
Bit rate mode : Constant
Bit rate : 192 Kbps
Channel(s) : 2 channels
Channel positions : Front: L R
Sampling rate : 48.0 KHz
Bit depth : 16 bits
Compression mode : Lossy
Stream size : 142 MiB (10%)
Alignment : Aligned on interleaves
Interleave, duration : 42 ms (1.00 video frame)



Скачать Чарли.Charly.(Ральф.Нельсон).[1968.фантастика.драма.DVDRip].[VO].torrent без регистрации
Золото ЗОЛОТАЯ РАЗДАЧА! СКАЧАННОЕ НЕ ЗАСЧИТЫВАЕТСЯ! Золото
Дата: Зарегистрирован   [ Тип: внутренний ] Как тут cкачать?
MAGNET ссылка
MAGNET ссылка


Скачать .torrent

30 KB

Статус: проверено DHT
Скачан: торрент - 256 раз, раздача полностью - 212 раз
Размер: 1,45 GB
Оценка:  - (Голосов: 0)
Поблагодарили: 2
Поделиться ссылкой на эту раздачу с друзьями:
В контактеFacebookОдноклассникиTwitterLivejournalМой МирLiveinternet
 

 
Показать сообщения:    


Вы не можете начинать темы
Вы не можете отвечать на сообщения
Вы не можете редактировать свои сообщения
Вы не можете удалять свои сообщения
Вы не можете голосовать в опросах
Вы не можете прикреплять файлы к сообщениям
Вы можете скачивать файлы