Loading...
Error

Скачать Поймать вора / To Catch a Thief (Альфред Хичкок) [1955, триллер, мелодрама, криминал, детектив, HDTVRip-AVC] [MVO] + Original торрент без регистрации

 
Статистика раздачи
Размер:  2,17 GB   |    Скачан:  131 раз

Полного источника не было: 30 минут

 
Автор Сообщение

leon030982

[] 

Поймать вора / To Catch a Thief
«WANTED by the police in all the luxury-spots of Europe!... A catch for any woman!»
Год выхода: 1955
Жанр: триллер, мелодрама, криминал, детектив
Страна: США
Продолжительность: 01:46:26
Перевод: Профессиональный (многоголосый, закадровый) + Оригинал
Субтитры: русские, английские

Режиссер: Альфред Хичкок / Alfred Hitchcock
В ролях: Кэри Грант, Грэйс Келли, Джесси Ройс Лэндис, Джон Уильямс, Шарль Ванель, Брижитт Обер, Жан Мартинелли, Жоржетт Анис, Джордж Адриан, Джон Алдерсон
Описание: Джон Роби, был некогда непревзойдённым профессиональным вором, известным под кличкой «Кот». «Коту» повезло: он сумел вовремя «завязать» и красиво уйти. Скопив капиталец, Роби отправился «на пенсию» и элегантно прожигал жизнь на французской Ривьере.
Но изысканной и спокойной жизни экс-преступника приходит конец после того, как кто-то начинает грабить богатеев, точь-в-точь в его стиле Роби. Так как подозрения резонным образом падают на Джона, то он решает во что бы то ни стало найти своего имитатора!
Качество: HDTVRip-AVC (Source: )
Формат: MKV
Видео кодек: H.264
Аудио кодек: AC3
Видео: 1024x576 (1.78:1), 23.976 fps, MPEG-4 AVC, ~2339 kbps, 0.165 bit/pixel
Аудио (Русский): 48 kHz, AC3, 2/0 (L, R) ch, ~192 kbps | MVO (Фильм-Престиж)
Аудио (Английский): 48 kHz, AC3, 3/2 (L,C,R,l,r) + LFE ch, ~384 kbps | Original
Sample
Релиз группы: DHT-Movies
Общее
Полное имя : E:\To.Catch.a.Thief.1955.BDRip-AVC.x264.DHT-Movies.mkv
Формат : Matroska
Версия формата : Version 2
Размер файла : 2,17 Гбайт
Продолжительность : 1 ч. 46 м.
Общий поток : 2916 Кбит/сек
Дата кодирования : UTC 2012-01-10 08:46:35
Программа кодирования : mkvmerge v5.2.1 ('A Far Off Place') built on Jan 2 2012 23:21:10
Библиотека кодирования : libebml v1.2.3 + libmatroska v1.3.0
Видео
Идентификатор : 1
Формат : AVC
Формат/Информация : Advanced Video Codec
Профиль формата : High@L4.1
Параметр CABAC формата : Да
Параметр ReFrames формата : 9 кадров
Идентификатор кодека : V_MPEG4/ISO/AVC
Продолжительность : 1 ч. 46 м.
Битрейт : 2339 Кбит/сек
Ширина : 1024 пикселя
Высота : 576 пикселей
Соотношение сторон : 16:9
Частота кадров : 23,976 кадра/сек
Цветовое пространство : YUV
Субдискретизация насыщенности : 4:2:0
Битовая глубина : 8 бит
Тип развёртки : Прогрессивная
Бит/(Пиксели*Кадры) : 0.165
Размер потока : 1,70 Гбайт (78%)
Заголовок : 1024x576 (1.78:1), 23.976 fps, 2339 kbps, 0.165 bit/pixel
Библиотека кодирования : x264 core 116 r2074 2641b9e
Настройки программы : cabac=1 / ref=9 / deblock=1:-3:-2 / analyse=0x3:0x113 / me=tesa / subme=10 / psy=1 / psy_rd=0.92:0.06 / mixed_ref=1 / me_range=32 / chroma_me=1 / trellis=2 / 8x8dct=1 / cqm=0 / deadzone=21,11 / fast_pskip=0 / chroma_qp_offset=-3 / threads=6 / sliced_threads=0 / nr=0 / decimate=0 / interlaced=0 / bluray_compat=0 / constrained_intra=0 / bframes=8 / b_pyramid=2 / b_adapt=2 / b_bias=0 / direct=3 / weightb=1 / open_gop=0 / weightp=2 / keyint=240 / keyint_min=23 / scenecut=40 / intra_refresh=0 / rc=2pass / mbtree=0 / bitrate=2339 / ratetol=1.0 / qcomp=0.60 / qpmin=0 / qpmax=69 / qpstep=4 / cplxblur=20.0 / qblur=0.5 / ip_ratio=1.40 / pb_ratio=1.25 / aq=2:0.85
Язык : English
Аудио #1
Идентификатор : 2
Формат : AC-3
Формат/Информация : Audio Coding 3
Расширение режима : CM (complete main)
Идентификатор кодека : A_AC3
Продолжительность : 1 ч. 46 м.
Вид битрейта : Постоянный
Битрейт : 192 Кбит/сек
Каналы : 2 канала
Расположение каналов : Front: L R
Частота : 48,0 КГц
Битовая глубина : 16 бит
Метод сжатия : С потерями
Размер потока : 146 Мбайт (7%)
Заголовок : 48 kHz, AC3, 2 ch, 192 kbps - MVO (Фильм-Престиж)
Язык : Russian
Аудио #2
Идентификатор : 3
Формат : AC-3
Формат/Информация : Audio Coding 3
Расширение режима : CM (complete main)
Идентификатор кодека : A_AC3
Продолжительность : 1 ч. 46 м.
Вид битрейта : Постоянный
Битрейт : 384 Кбит/сек
Каналы : 6 каналов
Расположение каналов : Front: L C R, Side: L R, LFE
Частота : 48,0 КГц
Битовая глубина : 16 бит
Метод сжатия : С потерями
Размер потока : 292 Мбайт (13%)
Заголовок : 48 kHz, AC3, 5.1 ch, 384 kbps - Original
Язык : English
Текст #1
Идентификатор : 4
Формат : UTF-8
Идентификатор кодека : S_TEXT/UTF8
Идентификатор кодека/Информация : UTF-8 Plain Text
Заголовок : Русские
Язык : Russian
Текст #2
Идентификатор : 5
Формат : UTF-8
Идентификатор кодека : S_TEXT/UTF8
Идентификатор кодека/Информация : UTF-8 Plain Text
Заголовок : Английские
Язык : English
x264 [info]: frame I:1164 Avg QP:17.90 size: 91748 PSNR Mean Y:45.43 U:51.52 V:51.07 Avg:46.65 Global:45.85
x264 [info]: frame P:37652 Avg QP:21.10 size: 25648 PSNR Mean Y:42.97 U:50.11 V:49.70 Avg:44.29 Global:43.37
x264 [info]: frame B:114317 Avg QP:23.26 size: 6952 PSNR Mean Y:42.37 U:49.91 V:49.49 Avg:43.72 Global:42.88
x264 [info]: consecutive B-frames: 1.6% 2.0% 9.7% 53.7% 19.9% 10.6% 1.7% 0.7% 0.1%
x264 [info]: mb I I16..4: 4.4% 71.3% 24.3%
x264 [info]: mb P I16..4: 1.1% 7.6% 1.3% P16..4: 42.8% 28.1% 15.9% 0.0% 0.0% skip: 3.3%
x264 [info]: mb B I16..4: 0.1% 0.7% 0.2% B16..8: 34.8% 10.6% 3.2% direct: 5.4% skip:45.0% L0:34.7% L1:46.7% BI:18.7%
x264 [info]: 8x8 transform intra:75.0% inter:59.6%
x264 [info]: direct mvs spatial:98.8% temporal:1.2%
x264 [info]: coded y,uvDC,uvAC intra: 84.1% 68.6% 32.7% inter: 23.2% 14.2% 3.5%
x264 [info]: i16 v,h,dc,p: 31% 16% 16% 37%
x264 [info]: i8 v,h,dc,ddl,ddr,vr,hd,vl,hu: 11% 12% 7% 8% 12% 11% 14% 10% 15%
x264 [info]: i4 v,h,dc,ddl,ddr,vr,hd,vl,hu: 12% 10% 4% 8% 14% 13% 14% 11% 15%
x264 [info]: i8c dc,h,v,p: 38% 28% 20% 14%
x264 [info]: Weighted P-Frames: Y:5.3% UV:2.6%
x264 [info]: ref P L0: 49.1% 12.9% 18.9% 4.7% 4.5% 3.0% 3.1% 1.6% 1.8% 0.3% 0.0%
x264 [info]: ref B L0: 82.2% 10.0% 3.2% 1.6% 1.1% 1.0% 0.6% 0.3%
x264 [info]: ref B L1: 95.0% 5.0%
x264 [info]: SSIM Mean Y:0.9813113 (17.284db)
x264 [info]: PSNR Mean Y:42.542 U:49.971 V:49.552 Avg:43.886 Global:43.013 kb/s:2338.85
encoded 153133 frames, 2.52 fps, 2338.85 kb/s
* Во время съемок этого фильма Грэйс Келли встретила своего будущего мужа, принца Монако.
* Камео Хичкока - сидит в автобусе рядом с Кэри Грантом (9 минута).
[spoiler="
c названием фильма
"]



Скачать Поймать.вора.To.Catch.a.Thief.(Альфред.Хичкок).[1955.триллер.мелодрама.криминал.детектив.HDTVRip-AVC].[MVO].+.Original.torrent без регистрации
Золото ЗОЛОТАЯ РАЗДАЧА! СКАЧАННОЕ НЕ ЗАСЧИТЫВАЕТСЯ! Золото
Дата: Зарегистрирован   [ Тип: внутренний ] Как тут cкачать?
MAGNET ссылка
MAGNET ссылка


Скачать .torrent

11 KB

Статус: проверено DHT
Скачан: торрент - 131 раз, раздача полностью - 6 раз
Размер: 2,17 GB
Оценка:  - (Голосов: 0)
Поблагодарили: 4
Поделиться ссылкой на эту раздачу с друзьями:
В контактеFacebookОдноклассникиTwitterLivejournalМой МирLiveinternet
 

 
Показать сообщения:    


Вы не можете начинать темы
Вы не можете отвечать на сообщения
Вы не можете редактировать свои сообщения
Вы не можете удалять свои сообщения
Вы не можете голосовать в опросах
Вы не можете прикреплять файлы к сообщениям
Вы можете скачивать файлы