Loading...
Error

Скачать Карточный домик / House of Cards (сезоны 01-03) (Джеймс Фоули и др.) [2013-2015, политическая драма, WEBRip] [MVO (Первый Канал)] торрент без регистрации

 
Статистика раздачи
Размер:  12,51 GB   |    Скачан:  449 раз
Сидов:  1  [  0 KB/s  ]  
 
Автор Сообщение

МихаНЕзатор

[] 

Название: Карточный домик
Оригинальное название: House of Cards
Год выпуска: 2013
Жанр: Драма
Режиссер: Джеймс Фоули, Дэвид Финчер, Карл Франклин
В ролях: Кевин Спейси, Робин Райт, Кейт Мара, Кори Столл, Майкл Келли, Сакина Джэффри, Жаклин Джонс, Рюэл Пендлтон, Гилберт Сото, Сандрин Холт

Описание: Безжалостный конгрессмен, Фрэнсис Андервуд, и его амбициозная жена Клэр, не остановятся ни перед чем, чтобы завоевать все. Эта жестокая политическая драма пропитанная жадностью, сексом, любовью и коррупцией.

Выпущено: США / Media Rights Capital, Panic Pictures (II), Trigger Street Productions
Продолжительность: 27 x ~ 00:51:00
Перевод: Профессиональный (многоголосый, закадровый) - Первый канал
Субтитры: Нет



Качество: HDRip, WEBRip
Видео: XviD, ~ 800 Кбит/с, 640x320
Аудио: MP3, 2 ch, 112 Кбит/с

АНОНСЫ ПОПУЛЯРНЫХ РАЗДАЧ


Торент обновлён, добавлена 13-я серия 3-го сезона, , финал сезона!

Знаете ли вы, что...
Сериал является адаптацией одноименного сериала 1990-го года, в основе которого лежит роман Майкла Доббса, британского политика и писателя.
В титрах сериала не указан хактивист Грегг Хауш, который работал с актером Джимми Симпсоном в течение 6 месяцев как компьютерный хакер-консультант.Актёры сыгравшие в сериале президента и гос. секретаря в реальной жизни муж и жена.Перед премьерой второго сезона Барак Обама попросил зрителей сериала «Карточный домик» удержаться от спойлеров о сюжете нового сезона. Соответствующая запись появилась в официальном твиттере президента США. Как стало известно в начале февраля 2014-го, «Карточный домик» продлили на третий сезон.Для съемок сериала был снят склад площадью около 28000 квадратных метров в промышленном районе города Джоппа, штат Мэриленд. Съемочная площадка сериала на самом деле является частью старого распределительного центра, а все сцены передвижения на автомобилях снимались на зеленом фоне в помещении, которое раньше было холодильником, приспособленным для хранения меховых вещей. Внутри здания склада были размещены следующие съемочные площадки: Овальный кабинет, дом Андервуда (первый этаж, подвал и второй этаж), здание Конгресса, различные офисы представителей государства, канцелярия губернатора в Южной Каролине, различные номера в роскошных отелях.

Золотой глобус, 2015 год
Победитель (1):
Лучшая мужская роль на ТВ (драма) (Кевин Спейси)
Номинации (2):
Лучшая женская роль на ТВ (драма) (Робин Райт)
Лучший драматический сериал

Премия Гильдии актеров, 2015 год
Победитель (1):
Лучший актер драматического сериала (Кевин Спейси)
Номинации (2):
Лучшая актриса драматического сериала (Робин Райт)
Лучший актерский состав драматического сериала

Золотой глобус, 2014 год
Победитель (1):
Лучшая женская роль на ТВ (драма) (Робин Райт)
Номинации (3):
Лучший драматический сериал
Лучшая мужская роль на ТВ (драма) (Кевин Спейси)
Лучший актёр второго плана мини-сериала или фильма на ТВ (Кори Столл)

Эмми, 2014 год
Номинации (5):
Лучший драматический сериал
Лучшая мужская роль в драматическом сериале (Кевин Спейси)
Лучшая женская роль в драматическом сериале (Робин Райт)
Лучшая приглашенная актриса в драматическом сериале (Кейт Мара)
Лучший приглашенный актёр в драматическом сериале (Рег Э. Кэти)

Премия Гильдии актеров, 2014 год
Номинации (1):
Лучший актер драматического сериала (Кевин Спейси)

Эмми, 2013 год
Номинации (3):
Лучшая мужская роль в драматическом сериале (Кевин Спейси) — «For playing Francis Underwood»
Лучшая женская роль в драматическом сериале (Робин Райт) — «For playing Claire Underwood»
Лучший драматический сериал

General
Complete name : F:\Сериалы\House of Cards [Season №01] [2013] [Первый канал]\House of Cards.2013.s01e01.HDRip.mvo.avi
Format : AVI
Format/Info : Audio Video Interleave
File size : 365 MiB
Duration : 55mn 57s
Overall bit rate : 912 Kbps
Writing application : VirtualDubMod 1.5.10.3 | www.virtualdub-fr.org || (build 2550/release)
Writing library : VirtualDubMod build 2550/release

Video
ID : 0
Format : MPEG-4 Visual
Format profile : Advanced Simple@L5
Format settings, BVOP : 1
Format settings, QPel : No
Format settings, GMC : No warppoints
Format settings, Matrix : Custom
Codec ID : XVID
Codec ID/Hint : XviD
Duration : 55mn 57s
Bit rate : 791 Kbps
Width : 640 pixels
Height : 320 pixels
Display aspect ratio : 2.000
Frame rate : 23.976 fps
Color space : YUV
Chroma subsampling : 4:2:0
Bit depth : 8 bits
Scan type : Progressive
Compression mode : Lossy
Bits/(Pixel*Frame) : 0.161
Stream size : 317 MiB (87%)
Writing library : XviD 73

Audio
ID : 1
Format : MPEG Audio
Format version : Version 1
Format profile : Layer 3
Codec ID : 55
Codec ID/Hint : MP3
Duration : 55mn 57s
Bit rate mode : Constant
Bit rate : 112 Kbps
Channel(s) : 2 channels
Sampling rate : 44.1 KHz
Compression mode : Lossy
Stream size : 44.8 MiB (12%)
Alignment : Split accross interleaves
Interleave, duration : 42 ms (1.00 video frame)
Interleave, preload duration : 500 ms
Writing library : LAME3.99r
Encoding settings : -m s -V 4 -q 2 -lowpass 15.6 -b 112



Скачать Карточный.домик.House.of.Cards.(сезоны.01-03).(Джеймс.Фоули.и.др.).[2013-2015.политическая.драма.WEBRip].[MVO.(Первый.Канал)].torrent без регистрации
Золото ЗОЛОТАЯ РАЗДАЧА! СКАЧАННОЕ НЕ ЗАСЧИТЫВАЕТСЯ! Золото
Дата: Зарегистрирован   [ Тип: внутренний ] Как тут cкачать?
MAGNET ссылка
MAGNET ссылка


Скачать .torrent

37 KB

Статус: проверено DHT
Скачан: торрент - 449 раз, раздача полностью - 455 раз
Размер: 12,51 GB
Оценка:  5 (Голосов: 1)
Поблагодарили: 7
Поделиться ссылкой на эту раздачу с друзьями:
В контактеFacebookОдноклассникиTwitterLivejournalМой МирLiveinternet
 

 
Показать сообщения:    


Вы не можете начинать темы
Вы не можете отвечать на сообщения
Вы не можете редактировать свои сообщения
Вы не можете удалять свои сообщения
Вы не можете голосовать в опросах
Вы не можете прикреплять файлы к сообщениям
Вы можете скачивать файлы