Loading...
Error

Скачать Золотые копи / Гора Cапог / Boot Hill / La Collina degli stivali (Джузеппе Колицци) [1969, комедия, вестерн, DVDRip] [VO] торрент без регистрации

 
Статистика раздачи
Размер:  1,37 GB   |    Скачан:  148 раз
Сидов:  1  [  0 KB/s  ]  
 
Автор Сообщение

МихаНЕзатор

[] 

Информация о фильме
Название: Гора Cапог / Золотые копи
Оригинальное название: Boot Hill / La Collina degli stivali
Год выхода: 1969
Жанр: Комедия, Вестерн
Режиссер: Джузеппе Колицци

В ролях: Вуди Строуд, Теренс Хилл, Бад Спенсер, Эдуардо Цианелли , Глауко Онорато, Альберто Дэлль'Акква, Виктор Буоно, Лайонел Стэндер, Лесли Бэйли

О фильме:
Дикий Запад, времена золотой лихорадки Банда Финча, нанятая крупными владельцами приисков, гоняется за мелкими золотоискателями, отстреливая их по одному и отбирая их наделы. Но однажды они сталкиваются с крутым парнем, не желающим просто так отдаватьсвою землю



Страна: Италия
Студия: San Marco S.P.A./Crono S.P.A
Продолжительность: 01:31:20
Перевод: Любительский (одноголосый)

Файл
Кодек: XviD
Качество: DVDRip
Видео: Xvid MPEG-4 Visual 720x320 25.00fps 1880kbps
Звук:
Аудио: Dolby AC3 48000Hz stereo 256kbps 2ch

Субтитры: Нет
Format : AVI
Format/Info : Audio Video Interleave
File size : 1.37 GiB
Duration : 1h 31mn
Overall bit rate : 2 144 Kbps
Writing application : VirtualDubMod 1.5.4.1 (build 2178/release)
Writing library : VirtualDubMod build 2178/release

Video
ID : 0
Format : MPEG-4 Visual
Format profile : Advanced Simple@L5
Format settings, BVOP : 1
Format settings, QPel : No
Format settings, GMC : No warppoints
Format settings, Matrix : Custom
Codec ID : XVID
Codec ID/Hint : XviD
Duration : 1h 31mn
Bit rate : 1 881 Kbps
Width : 720 pixels
Height : 320 pixels
Display aspect ratio : 2.25:1
Frame rate : 25.000 fps
Color space : YUV
Chroma subsampling : 4:2:0
Bit depth : 8 bits
Scan type : Progressive
Compression mode : Lossy
Bits/(Pixel*Frame) : 0.327
Stream size : 1.20 GiB (88%)
Writing library : XviD 1.2.1 (UTC 2008-12-04)

Audio
ID : 1
Format : AC-3
Format/Info : Audio Coding 3
Mode extension : CM (complete main)
Codec ID : 2000
Duration : 1h 31mn
Bit rate mode : Constant
Bit rate : 256 Kbps
Channel(s) : 2 channels
Channel positions : Front: L R
Sampling rate : 48.0 KHz
Bit depth : 16 bits
Compression mode : Lossy
Stream size : 167 MiB (12%)
Alignment : Split accross interleaves
Interleave, duration : 96 ms (2.40 video frames)
Interleave, preload duration : 96 ms
Language : Russian
. . . . . .


Релиз от: hellgast2010



Скачать Золотые.копи.Гора.Cапог.Boot.Hill.La.Collina.degli.stivali.(Джузеппе.Колицци).[1969.комедия.вестерн.DVDRip].[VO].torrent без регистрации
Золото ЗОЛОТАЯ РАЗДАЧА! СКАЧАННОЕ НЕ ЗАСЧИТЫВАЕТСЯ! Золото
Дата: Зарегистрирован   [ Тип: внутренний ] Как тут cкачать?
MAGNET ссылка
MAGNET ссылка


Скачать .torrent

14 KB

Статус: проверено DHT
Скачан: торрент - 148 раз, раздача полностью - 7 раз
Размер: 1,37 GB
Оценка:  - (Голосов: 0)
Поблагодарили: 1
Поделиться ссылкой на эту раздачу с друзьями:
В контактеFacebookОдноклассникиTwitterLivejournalМой МирLiveinternet
 

 
Показать сообщения:    


Вы не можете начинать темы
Вы не можете отвечать на сообщения
Вы не можете редактировать свои сообщения
Вы не можете удалять свои сообщения
Вы не можете голосовать в опросах
Вы не можете прикреплять файлы к сообщениям
Вы можете скачивать файлы