Loading...
Error

Скачать Врата / The Hole (Джо Данте) [2009 г., ужасы, триллер, комедия, DVDRip-AVC] торрент без регистрации

 
Статистика раздачи
Размер:  1,56 GB   |    Скачан:  598 раз

Полного источника не было: 1 год 4 месяца

 
Автор Сообщение

mexshuba

[] 

Врата / The Hole



Год выпуска: 2009
Выпущено: США
Жанр: ужасы, триллер, комедия
Продолжительность: 01:28:15
Перевод: Профессиональный (полное дублирование) [лицензия]
Режиссер: Джо Данте
В ролях: Крис Дж. Келли,Тери Поло,Брюс Дерн,Хейли Беннетт,Натан Гэмбл,Дик Миллер,Куинн Лорд,Джон ДеСантис,Джессика Жюст,Чорд Оуверстрит
Описание: Куда уж хуже! — именно так думает 17-ти летний Дени и его 10-ти летний брат Лукас, когда мать перевозит их из Нью-Йорка в сонный городишко Бенсонвиль. Не спеши расстраиваться Дени: твоя новая соседка Джули очень даже ничего. Мама всё больше пропадает на работе, ей некогда заниматься детьми, и братья находят себе занятие: исследовать своё новое место жительства. Дени всё больше интересуется Джулией, и всё меньше своим младшим братом.

Но всё изменится, когда они найдут зловещую бездонную дыру, закрытую люком в подвале. И открыв крышку люка, братьев пронизывает леденящий сердце холод — этот бездонный колодец является вратами в миры тьмы. И теперь, когда они выпустили зло на волю, в каждой тени оживут их потаённые страхи, и им придётся встретится лицом к лицу с ужасом, чтобы закрыть врата навсегда.

Автор рипа: mexshuba
Релиз:
Качество: DVDRip-AVC [Рип с DVD9]
Формат: MKV
Видео кодек: AVC
Аудио кодек: AC3
Видео: AVC, 1024х576, 2089 Kbps, 25.000 fps, 0.142 Bits/(Pixel*Frame)
Аудио: AC3, 48.0 KHz, 16 bits, 448 Kbps (6 ch)

General
Format: Matroska
File size: 1.56 GiB
Duration: 1h 28mn
Overall bit rate: 2 539 Kbps
Encoded date: UTC 2010-07-28 14:23:59
Writing application: mkvmerge v3.3.0 ('Language') built on Mar 24 2010 14:59:24
Writing library: libebml v0.8.0 + libmatroska v0.9.0

Video
ID: 1
Format: AVC
Format/Info: Advanced Video Codec
Format profile: High@L3.1
Format settings, CABAC: Yes
Format settings, ReFrames: 4 frames
Muxing mode: Container profile=Unknown@3.1
Codec ID: V_MPEG4/ISO/AVC
Duration: 1h 28mn
Bit rate: 2 089 Kbps
Width: 1 024 pixels
Height: 576 pixels
Display aspect ratio: 16:9
Frame rate: 25.000 fps
Color space: YUV
Chroma subsampling: 4:2:0
Bit depth: 8 bits
Scan type: Progressive
Bits/(Pixel*Frame): 0.142
Stream size: 1.26 GiB (80%)
Writing library: x264 core 92 r1510 33d382a
Encoding settings: cabac=1 / ref=1 / deblock=1:0:0 / analyse=0x3:0x113 / me=hex / subme=2 / psy=1 / psy_rd=0.00:0.00 / mixed_ref=0 / me_range=16 / chroma_me=1 / trellis=0 / 8x8dct=1 / cqm=0 / deadzone=21,11 / fast_pskip=1 / chroma_qp_offset=0 / threads=3 / sliced_threads=0 / nr=0 / decimate=1 / interlaced=0 / constrained_intra=0 / bframes=3 / b_pyramid=2 / b_adapt=1 / b_bias=0 / direct=3 / wpredb=1 / wpredp=0 / keyint=250 / keyint_min=25 / scenecut=40 / intra_refresh=0 / rc=2pass / mbtree=0 / bitrate=2089 / ratetol=1.0 / qcomp=0.60 / qpmin=10 / qpmax=51 / qpstep=4 / cplxblur=20.0 / qblur=0.5 / ip_ratio=1.40 / pb_ratio=1.30 / aq=1:1.00

Audio
ID: 2
Format: AC-3
Format/Info: Audio Coding 3
Mode extension: CM (complete main)
Codec ID: A_AC3
Duration: 1h 28mn
Bit rate mode: Constant
Bit rate: 448 Kbps
Channel(s): 6 channels
Channel positions: Front: L C R, Side: L R, LFE
Sampling rate: 48.0 KHz
Bit depth: 16 bits
Stream size: 283 MiB (18%)




Скачать Врата.The.Hole.(Джо.Данте).[2009.г.ужасы.триллер.комедия.DVDRip-AVC].torrent без регистрации
Золото ЗОЛОТАЯ РАЗДАЧА! СКАЧАННОЕ НЕ ЗАСЧИТЫВАЕТСЯ! Золото
Дата: Зарегистрирован   [ Тип: внутренний ] Как тут cкачать?
MAGNET ссылка
MAGNET ссылка


Скачать .torrent

16 KB

Статус: проверено
Скачан: торрент - 598 раз, раздача полностью - 5822 раз
Размер: 1,56 GB
Оценка:  4 (Голосов: 1)
Поблагодарили: 13
Поделиться ссылкой на эту раздачу с друзьями:
В контактеFacebookОдноклассникиTwitterLivejournalМой МирLiveinternet
 

 

mexshuba

[] 

Аудио дорожка не кодировалась,оригинальная с DVD9
 

Shara

[] 

Вау, крутяк, молодец!
 

[] 

Топик был перенесен из форума Релизы группы "GoldenShara Studio" в форум Фильмы 2009 года

Shara
 
Показать сообщения:    


Вы не можете начинать темы
Вы не можете отвечать на сообщения
Вы не можете редактировать свои сообщения
Вы не можете удалять свои сообщения
Вы не можете голосовать в опросах
Вы не можете прикреплять файлы к сообщениям
Вы можете скачивать файлы