Loading...
Error

Скачать Игра престолов / Game of Thrones (сезон 03) (Дэн Майнахан, Дэвид Наттер) [2013, фэнтези, драма, приключения, HDTV] [1080i] [Sub] торрент без регистрации

Статистика раздачи
Размер:  50,17 GB   |    Скачан:  114 раз
Сидов:  1  [  0 KB/s  ]  
 
 
 
Автор Сообщение

МихаНЕзатор

[] 

Игра престолов / Game of Thrones

Год выпуска: 2013
Страна: США, Великобритания / HBO
Жанр: фэнтези, драма, приключения
Продолжительность: ~00:56:00

Перевод: Субтитры
Русские субтитры: есть
Автор перевода: 7kingdoms

Режиссёр: Дэн Майнахан, Дэвид Наттер

В ролях: Лена Хиди, Николай Костер-Валдау, Питер Динклейдж, Йен Глен, Эмилия Кларк, Кит Харингтон, Стивен Диллэйн, Лиам Каннингем, Кэрис ван Хаутен, Натали Дормер, Гвендолин Кристи, Ханна Мюррей

Описание: Люди, отказавшиеся жить по законам Семи Королевств, получили название одичалых и были изгнаны за Стену, на страже которой стоит Ночной Дозор. Но орден был учрежден, чтобы защищать мир людей от совсем другой силы Белых Ходоков, ныне пробудившихся и угрожающих всему живому. Король одичалых Манс готов на все, чтобы убедить Дозор пропустить свой народ за Стену.
Однако южные лорды и короли как и прежде глухи к сообщениям о скорой зиме, о пробуждении Иных и о вторжении одичалых. Король Станнис Баратеон скрылся после поражения на Черноводной в своем замке, король Бейлон Грейджой разоряет побережье, король Робб теряет союзников, а король Джоффри, напротив, имея в союзниках два самых влиятельных дома Королевств, надеется вскоре разбить всех своих врагов. Третий сезон Игры престолов поставлен по первой половине третьего тома Песни Льда и Пламени (Буря мечей).



Качество: HDTV 1080i
Формат: TS
Видео кодек: MPEG2
Аудио кодек: AC3
Видео: 11.2 Mbps, 1920x1080 (16:9), at 29.970 fps, MPEG2 (Main@High)
Аудио: 48 kHz, AC3, 2 ch, ~384.00 kbps avg

10.06.2013 г. торент обновлён, добавлена 10 серия, сезон полностью!

General
ID : 1 (0x1)
Complete name : C:Documents and SettingsРабочий столFILMСЕРИАЛЫGame of ThronesGame.of.Thrones.Season.3.1080i.HDTVGame.of.Thrones.S03E01.1080i.HDTV.ts
Format : MPEG-TS
File size : 4.87 GiB
Duration : 57mn 10s
Overall bit rate mode : Variable
Overall bit rate : 12.2 Mbps

Video
ID : 33 (0x21)
Menu ID : 1 (0x1)
Format : MPEG Video
Format version : Version 2
Format profile : Main@High
Format settings, BVOP : Yes
Format settings, Matrix : Custom
Codec ID : 2
Duration : 57mn 10s
Bit rate mode : Variable
Bit rate : 11.2 Mbps
Maximum bit rate : 24.0 Mbps
Width : 1 920 pixels
Height : 1 080 pixels
Display aspect ratio : 16:9
Frame rate : 29.970 fps
Color space : YUV
Chroma subsampling : 4:2:0
Bit depth : 8 bits
Compression mode : Lossy
Bits/(Pixel*Frame) : 0.180
Stream size : 4.48 GiB (92%)

Audio
ID : 36 (0x24)
Menu ID : 1 (0x1)
Format : AC-3
Format/Info : Audio Coding 3
Mode extension : CM (complete main)
Format settings, Endianness : Big
Codec ID : 129
Duration : 57mn 10s
Bit rate mode : Constant
Bit rate : 384 Kbps
Channel(s) : 2 channels
Channel positions : Front: L R
Sampling rate : 48.0 KHz
Bit depth : 16 bits
Compression mode : Lossy
Stream size : 157 MiB (3%)
Language : English

Text #1
ID : 33 (0x21)-CC1
Menu ID : 1 (0x1)
Format : EIA-608
Muxing mode : A/53 / DTVCC Transport
Muxing mode, more info : Muxed in Video #1
Duration : 57mn 10s
Bit rate mode : Constant
Stream size : 0.00 Byte (0%)

Text #2
ID : 33 (0x21)-1
Menu ID : 1 (0x1)
Format : EIA-708
Muxing mode : A/53 / DTVCC Transport
Muxing mode, more info : Muxed in Video #1
Duration : 57mn 10s
Bit rate mode : Constant
Stream size : 0.00 Byte (0%)

Text #3
ID : 33 (0x21)-2
Menu ID : 1 (0x1)
Format : EIA-708
Muxing mode : A/53 / DTVCC Transport
Muxing mode, more info : Muxed in Video #1
Duration : 57mn 10s
Bit rate mode : Constant
Stream size : 0.00 Byte (0%)

Внимание! Раздача ведётся путём добавления новых серий; при каждом добавлении создаётся новый торрент. Чтобы начать докачку новой серии, пользователям необходимо сделать следующее:
(1) остановить скачивание,
(2) удалить старый торрент у себя из клиента (старые серии удалять не надо),
(3) скачать новый торрент и запустить его у себя в клиенте вместо старого, при этом указать клиенту путь в старую папку куда и должно происходить скачивание новых серий.
Ваш клиент при этом должен произвести хеширование (проверку) старой папки (если не производит сам - помогите ему сделать это), и будет докачивать только те серии которых у вас ещё нет. Старые серии при этом не удаляются, а продолжают раздаваться!
Eсли вы уже удалили старые серии, то предотвратить повторную закачку старых серий можно, отжав галочку в соответствующих местах при запуске нового торрента. По возможности, желательно не удалять старые серии как можно дольше чтобы релизёр не столько продолжал раздавать старые серии, а смог сконцентрироваться на новых.



Скачать Игра.престолов.Game.of.Thrones.(сезон.03).(Дэн.Майнахан.Дэвид.Наттер).[2013.фэнтези.драма.приключения.HDTV].[1080i].[Sub].torrent без регистрации
Золото ЗОЛОТАЯ РАЗДАЧА! СКАЧАННОЕ НЕ ЗАСЧИТЫВАЕТСЯ! Золото
Дата: Зарегистрирован   [ Тип: внутренний ] Как тут cкачать?
MAGNET ссылка
MAGNET ссылка


Скачать .torrent

253 KB

Статус: проверено DHT
Скачан: торрент - 114 раз, раздача полностью - 9 раз
Размер: 50,17 GB
Оценка:  - (Голосов: 0)
Поблагодарили: 2
Поделиться ссылкой на эту раздачу с друзьями:
В контактеFacebookОдноклассникиTwitterLivejournalМой МирLiveinternet
 

 

МихаНЕзатор

[] 

Раздача обновлена.
 
Показать сообщения:    


Вы не можете начинать темы
Вы не можете отвечать на сообщения
Вы не можете редактировать свои сообщения
Вы не можете удалять свои сообщения
Вы не можете голосовать в опросах
Вы не можете прикреплять файлы к сообщениям
Вы можете скачивать файлы