Loading...
Error

Скачать Игра в четыре руки / Le guignolo (Жорж Лотнер) [1980, боевик, комедия, BDRip-AVC] [2xMVO] + [DUB] торрент без регистрации

 
Статистика раздачи
Размер:  3,2 GB   |    Скачан:  124 раза
Сидов:  1  [  0 KB/s  ]  
 
Автор Сообщение

leon030982

[] 

Игра в четыре руки / Le guignolo


Год выпуска: 1980
Страна: Франция, Италия
Жанр: боевик, комедия
Продолжительность: 01:47:18
Перевод: Многоголосый закадровый, RUSCICO
Оригинальная аудиодорожка: французский
Русские субтитры: есть
Навигация по главам: есть
Режиссер: Жорж Лотнер / Georges Lautner
В ролях: Жан-Поль Бельмондо, Мирелла Д’Анджело, Мишель Галабрю, Карла Романелли, Паоло Боначелли, Жорж Жере, Мишель Бон, Шарль Жерар, Морис Озель, Тони Кендалл
Описание:
Специализация симпатичного афериста Александра Дюпре — богатые вдовушки, из которых он изящно выколачивает деньги, каждый раз выдавая себя за разных персонажей.
Все шло гладко до того дня, когда он оказался втянутым… в дело о международном промышленном шпионаже, затрагивающем стратегические интересы Франции.
Kinopoisk.ru | IMDB | Sample |
Исходник: Спасибо AnryV
Качество: BDRip-AVC
Формат: MKV
Видео кодек: H.264
Аудио кодек: AС3
Видео: H.264, 1028x614, 23.976 fps, ~3211 kbps
Аудио 1: Русский: 48 kHz, AC3, 3/2 (L,C,R,l,r) + LFE ch, ~ 448.00 kbps | Многоголосый закадровый, RUSCICO
Аудио 2: Французский: 48 kHz, AC3 Dolby Digital, 2/0 (L,R), ~224.00 kbps
Отдельно:
Аудио 3: Русский: 48 kHz, AC3 Dolby Digital, 2/0 (L,R), ~192.00 kbps avg | MVO (НТВ+)
Аудио 4: Русский: 48 kHz, AC3 Dolby Digital, 2/0 (L,R), ~192.00 kbps avg | Дубляж (Качество звука на дубляже весьма паршивое. Есть вставки закадрового перевода.)
Формат субтитров: softsub (SRT): русские, английские
Rip vs Sourse

Rip vs Sourse

x264 [info]: frame I:1114 Avg QP:17.40 size:108905
x264 [info]: frame P:31594 Avg QP:21.38 size: 32395
x264 [info]: frame B:121660 Avg QP:22.18 size: 11831
x264 [info]: consecutive B-frames: 1.2% 1.1% 6.5% 19.9% 15.1% 52.9% 2.6% 0.5% 0.3%
x264 [info]: mb I I16..4: 8.1% 71.7% 20.3%
x264 [info]: mb P I16..4: 1.1% 12.2% 1.6% P16..4: 38.8% 27.3% 15.1% 0.0% 0.0% skip: 4.0%
x264 [info]: mb B I16..4: 0.1% 1.1% 0.2% B16..8: 38.7% 11.8% 3.8% direct: 7.2% skip:37.2% L0:39.3% L1:44.4% BI:16.2%
x264 [info]: 8x8 transform intra:80.2% inter:58.6%
x264 [info]: direct mvs spatial:99.7% temporal:0.3%
x264 [info]: coded y,uvDC,uvAC intra: 89.3% 76.1% 42.1% inter: 31.4% 17.2% 3.6%
x264 [info]: i16 v,h,dc,p: 60% 13% 13% 15%
x264 [info]: i8 v,h,dc,ddl,ddr,vr,hd,vl,hu: 16% 10% 8% 9% 13% 12% 12% 10% 11%
x264 [info]: i4 v,h,dc,ddl,ddr,vr,hd,vl,hu: 18% 17% 4% 7% 12% 13% 11% 9% 9%
x264 [info]: i8c dc,h,v,p: 33% 28% 24% 15%
x264 [info]: Weighted P-Frames: Y:7.4% UV:2.8%
x264 [info]: ref P L0: 45.1% 12.6% 16.6% 7.2% 5.3% 4.0% 3.2% 2.0% 1.6% 1.3% 1.1% 0.1% 0.0%
x264 [info]: ref B L0: 80.0% 10.3% 3.6% 1.9% 1.3% 1.0% 0.8% 0.5% 0.3% 0.2%
x264 [info]: ref B L1: 96.4% 3.6%
x264 [info]: kb/s:3210.89
General
Unique ID : 186988394265868469396958397588317999047 (0x8CACA79F765C20CD86898E6FB3190FC7)
Complete name : I:\Le guignolo\Le.guignolo.barm.mkv
Format : Matroska
Format version : Version 2
File size : 2.91 GiB
Duration : 1h 47mn
Overall bit rate : 3 885 Kbps
Movie name : Le guignolo 1980
Encoded date : UTC 2012-01-12 12:12:10
Writing application : mkvmerge v5.2.1 ('A Far Off Place') built on Jan 2 2012 23:21:10
Writing library : libebml v1.2.3 + libmatroska v1.3.0
Attachment : Yes
Video
ID : 1
Format : AVC
Format/Info : Advanced Video Codec
Format profile : High@L4.1
Format settings, CABAC : Yes
Format settings, ReFrames : 11 frames
Codec ID : V_MPEG4/ISO/AVC
Duration : 1h 47mn
Bit rate : 3 211 Kbps
Width : 1 028 pixels
Height : 614 pixels
Display aspect ratio : 1.674
Frame rate : 23.976 fps
Color space : YUV
Chroma subsampling : 4:2:0
Bit depth : 8 bits
Scan type : Progressive
Bits/(Pixel*Frame) : 0.212
Stream size : 2.35 GiB (81%)
Title : Le guignolo
Writing library : x264 core 120 r2120 0c7dab9
Encoding settings : cabac=1 / ref=11 / deblock=1:-3:-2 / analyse=0x3:0x113 / me=umh / subme=10 / psy=1 / psy_rd=1.05:0.10 / mixed_ref=1 / me_range=32 /
chroma_me=1 / trellis=2 / 8x8dct=1 / cqm=0 / deadzone=21,11 / fast_pskip=0 / chroma_qp_offset=-3 / threads=6 / sliced_threads=0 / nr=0 / decimate=0 / interlaced=0 /
bluray_compat=0 / constrained_intra=0 / bframes=8 / b_pyramid=2 / b_adapt=2 / b_bias=0 / direct=3 / weightb=1 / open_gop=0 / weightp=2 / keyint=250 / keyint_min=23 /
scenecut=40 / intra_refresh=0 / rc_lookahead=0 / rc=2pass / mbtree=0 / bitrate=3211 / ratetol=1.0 / qcomp=0.60 / qpmin=0 / qpmax=69 / qpstep=4 / cplxblur=20.0 / qblur=0.5 /
vbv_maxrate=50000 / vbv_bufsize=62500 / nal_hrd=none / ip_ratio=1.40 / pb_ratio=1.30 / aq=2:0.80
Language : French
Default : Yes
Forced : No
Matrix coefficients : BT.709-5, BT.1361, IEC 61966-2-4 709, SMPTE RP177
Audio #1
ID : 2
Format : AC-3
Format/Info : Audio Coding 3
Mode extension : CM (complete main)
Codec ID : A_AC3
Duration : 1h 47mn
Bit rate mode : Constant
Bit rate : 448 Kbps
Channel(s) : 6 channels
Channel positions : Front: L C R, Side: L R, LFE
Sampling rate : 48.0 KHz
Bit depth : 16 bits
Compression mode : Lossy
Stream size : 344 MiB (12%)
Title : MVO, RUSCICO, 48 kHz, AC3, 3/2 (L,C,R,l,r) + LFE ch, ~ 448.00 kbps
Language : Russian
Default : Yes
Forced : No
Audio #2
ID : 3
Format : AC-3
Format/Info : Audio Coding 3
Mode extension : CM (complete main)
Codec ID : A_AC3
Duration : 1h 47mn
Bit rate mode : Constant
Bit rate : 224 Kbps
Channel(s) : 2 channels
Channel positions : Front: L R
Sampling rate : 48.0 KHz
Bit depth : 16 bits
Compression mode : Lossy
Stream size : 172 MiB (6%)
Title : Original, 48 kHz, AC3 Dolby Digital, 2/0 (L,R), ~224.00 kbps
Language : French
Default : No
Forced : No
Text #1
ID : 4
Format : UTF-8
Codec ID : S_TEXT/UTF8
Codec ID/Info : UTF-8 Plain Text
Language : Russian
Default : No
Forced : No
Text #2
ID : 5
Format : UTF-8
Codec ID : S_TEXT/UTF8
Codec ID/Info : UTF-8 Plain Text
Language : English
Default : No
Forced : No
Menu
00:00:00.000 : en:Chapter 1
00:08:03.941 : en:Chapter 2
00:18:19.014 : en:Chapter 3
00:26:12.529 : en:Chapter 4
00:36:41.616 : en:Chapter 5
00:47:04.696 : en:Chapter 6
00:57:30.321 : en:Chapter 7
01:05:09.780 : en:Chapter 8
01:14:58.452 : en:Chapter 9
01:26:03.575 : en:Chapter 10
01:33:53.628 : en:Chapter 11
01:45:30.824 : en:Chapter 12



Скачать Игра.в.четыре.руки.Le.guignolo.(Жорж.Лотнер).[1980.боевик.комедия.BDRip-AVC].[2xMVO].+.[DUB].torrent без регистрации
Золото ЗОЛОТАЯ РАЗДАЧА! СКАЧАННОЕ НЕ ЗАСЧИТЫВАЕТСЯ! Золото
Дата: Зарегистрирован   [ Тип: внутренний ] Как тут cкачать?
MAGNET ссылка
MAGNET ссылка


Скачать .torrent

17 KB

Статус: проверено DHT
Скачан: торрент - 124 раз, раздача полностью - 5 раз
Размер: 3,2 GB
Оценка:  - (Голосов: 0)
Поблагодарили: 5
Поделиться ссылкой на эту раздачу с друзьями:
В контактеFacebookОдноклассникиTwitterLivejournalМой МирLiveinternet
 

 

pepsoid

[] 

раздайте плиз уже кто нибудь, хотелось бы скачать !
 
Показать сообщения:    


Вы не можете начинать темы
Вы не можете отвечать на сообщения
Вы не можете редактировать свои сообщения
Вы не можете удалять свои сообщения
Вы не можете голосовать в опросах
Вы не можете прикреплять файлы к сообщениям
Вы можете скачивать файлы