Loading...
Error

Скачать Все звезды / Tous Vedettes (Мишель Ланг) [1980, Музыкальная молодежная комедия, TVRip] [VO] торрент без регистрации

 
Статистика раздачи
Размер:  1,18 GB   |    Скачан:  264 раза

Полного источника не было: 10 дней

 
Автор Сообщение

leon030982

[] 

Все звезды / Tous Vedettes
Страна: Франция
Жанр: Музыкальная молодежная комедия
Год выпуска: 1980
Продолжительность: 01:54:27
Перевод: Одноголосый закадровый
Cубтитры: русские
Оригинальная аудиодорожка: французский
Режиссер: Мишель Ланг
В ролях: Даниэль Чеккальди, Реми Лоран, Китти Кортес-Линч, Франсуаза Пино, Жером Фулон, Клод Свика, Роберт Веббер, Лесли Карон[/color]
Описание: Студенты Парижской консерватории готовят новый мюзикл. На этом фоне разворачиваются их взаимоотношения. Много любви, песен, танцев увидите вы в этой молодежной комедии. Очень жизнерадостный фильм.



Релиз


Найти источник для создания рипа помогли wayness
и GreifeR
.
Из ее источника bankolya изготовил рип.
Перевод фильма выполнила VeraM.
Субтитры делали делали shachter58 и johnnyleo, bankolya подогнал их под новый рип, содержащий сцены, отсутствовавшие в старом варианте.
Озвучил фильм Stalk.
Сведение озвучки с оригинальной дорогой мастерски выполнил alex7691.
Песни переведены не все, а только имеющие важное значение для понимания действия. Их перевод маленькими субтитриками лежит рядом с фильмом.
Сэмпл: http://multi-up.com/633628
Качество видео: TVRip
Формат видео: AVI
Видео: 720x448 (1.61:1), 25 fps, XviD build 46 ~1207 kbps avg, 0.15 bit/pixel
Аудио: 44.100 kHz, MPEG Layer 3, 2 ch, ~128.00 kbps avg
Аудио 2: Французский: 44.100 kHz, MPEG Layer 3, 2 ch, ~128.00 kbps avg
Формат субтитров: softsub (SRT)
00:10:03,152 --> 00:10:06,232
- Он тебе нравится?
Давай, выкладывай.
2
00:10:07,260 --> 00:10:10,314
А тебе какое дело?
3
00:10:12,006 --> 00:10:19,289
- И каков он в постели?
- Совсем не подарок.
4
00:10:21,081 --> 00:10:27,952
- Зачем тебе эти глупости?
- Сама не знаю. Учусь жить.
5
00:10:29,693 --> 00:10:45,081
- Постарайся ничего не забыть.
И тебе нравится менять парней?
6
00:10:47,732 --> 00:10:54,901
- Надо попробовать многих,
прежде чем найти лучшего.
7
00:10:56,434 --> 00:10:59,241
Долго придется искать.
8
00:11:00,635 --> 00:11:03,606
- Не знаю.
Я учусь жить.
9
00:11:04,573 --> 00:11:10,190
Постарайся ничего не забыть.
10
00:11:14,022 --> 00:11:21,274
А я был хорошим учителем?
- Да, французского языка, но не любви.
General
Complete name : D:\Раздачи\Tous.Vedettes.1980.rus.fr.fenixclub.com.avi
Format : AVI
Format/Info : Audio Video Interleave
File size : 1.18 GiB
Duration : 1h 54mn
Overall bit rate : 1 479 Kbps
Writing application : VirtualDubMod 1.5.10.2 (build 2540/release)
Writing library : VirtualDubMod build 2540/release
Video
ID : 0
Format : MPEG-4 Visual
Format profile : Advanced Simple@L5
Format settings, BVOP : 2
Format settings, QPel : No
Format settings, GMC : No warppoints
Format settings, Matrix : Default (MPEG)
Codec ID : XVID
Codec ID/Hint : XviD
Duration : 1h 54mn
Bit rate : 1 208 Kbps
Width : 720 pixels
Height : 448 pixels
Display aspect ratio : 1.607
Frame rate : 25.000 fps
Color space : YUV
Chroma subsampling : 4:2:0
Bit depth : 8 bits
Scan type : Progressive
Compression mode : Lossy
Bits/(Pixel*Frame) : 0.150
Stream size : 989 MiB (82%)
Writing library : XviD 1.1.2 (UTC 2006-11-01)
Audio #1
ID : 1
Format : MPEG Audio
Format version : Version 1
Format profile : Layer 3
Mode : Joint stereo
Mode extension : MS Stereo
Codec ID : 55
Codec ID/Hint : MP3
Duration : 1h 54mn
Bit rate mode : Constant
Bit rate : 128 Kbps
Channel(s) : 2 channels
Sampling rate : 44.1 KHz
Compression mode : Lossy
Stream size : 105 MiB (9%)
Alignment : Split accross interleaves
Interleave, duration : 40 ms (1.00 video frame)
Interleave, preload duration : 500 ms
Audio #2
ID : 2
Format : MPEG Audio
Format version : Version 1
Format profile : Layer 3
Codec ID : 55
Codec ID/Hint : MP3
Duration : 1h 54mn
Bit rate mode : Constant
Bit rate : 128 Kbps
Channel(s) : 2 channels
Sampling rate : 44.1 KHz
Compression mode : Lossy
Stream size : 105 MiB (9%)
Alignment : Split accross interleaves
Interleave, duration : 40 ms (1.00 video frame)
Interleave, preload duration : 500 ms



Скачать Все.звезды.Tous.Vedettes.(Мишель.Ланг).[1980.Музыкальная.молодежная.комедия.TVRip].[VO].torrent без регистрации
Золото ЗОЛОТАЯ РАЗДАЧА! СКАЧАННОЕ НЕ ЗАСЧИТЫВАЕТСЯ! Золото
Дата: Зарегистрирован   [ Тип: внутренний ] Как тут cкачать?
MAGNET ссылка
MAGNET ссылка


Скачать .torrent

12 KB

Статус: проверено
Скачан: торрент - 264 раз, раздача полностью - 117 раз
Размер: 1,18 GB
Оценка:  - (Голосов: 0)
Поблагодарили: 2
Поделиться ссылкой на эту раздачу с друзьями:
В контактеFacebookОдноклассникиTwitterLivejournalМой МирLiveinternet
 

 
Показать сообщения:    


Вы не можете начинать темы
Вы не можете отвечать на сообщения
Вы не можете редактировать свои сообщения
Вы не можете удалять свои сообщения
Вы не можете голосовать в опросах
Вы не можете прикреплять файлы к сообщениям
Вы можете скачивать файлы