Loading...
Error

Скачать Специалист / The Specialist (Луис Льоса) [1994, боевик, BDRip] [VO Е. Гаевский] торрент без регистрации

 
Статистика раздачи
Размер:  2,23 GB   |    Скачан:  150 раз
Сидов:  1  [  0 KB/s  ]  
 
Автор Сообщение

leon030982

[] 

Специалист / The Specialist

Страна: США, Перу
Жанр: боевик
Год выпуска: 1994
Продолжительность: 01:49:57
Перевод: Одноголосый закадровый (Е. Гаевский)
Cубтитры: нет
Оригинальная аудиодорожка: английский
Режиссер: Луис Льоса (Luis Llosa)
В ролях: Сильвестр Сталоун (Sylvester Stallone), Шэрон Стоун (Sharon Stone), Джеймс Вудс (James Woods), Род Стайгер (Rod Steiger), Эрик Робертс (Eric Roberts)
Описание: После роковой ошибки на очередном задании, специалист-подрывник Рэй Куик уходит со службы в ЦРУ. Узнав о таком специалисте, Мэй Манро нанимает Рэя зачистить убийц её родителей. События получают крутой оборот, когда Рэй выясняет, что в деле замешан его бывший напарник Нэд Трент, спровоцировавший трагедию на том самом задании.

[Осторожно! В фильме присутствуют серьёзная обнажёнка и нехорошие слова!]
Сэмпл: http://multi-up.com/631884
Качество видео: BDRip (источник: HQ Video / Blu-Ray Disc / 1080p)
Формат видео: AVI
Видео: 704x400, 23.976 fps, XviD, 2058 kbps, 0.305 bit/pixel
Аудио 1: Русский, 48 kHz, AC3, 3/2 (L,C,R,l,r) + LFE ch, 448 kbps
Аудио 2: English, 48 kHz, AC3, 3/2 (L,C,R,l,r) + LFE ch, 384 Kbps




General
Complete name : The.Specialist.1994.BDRip.XviD.AC3.avi
Format : AVI
Format/Info : Audio Video Interleave
Format profile : OpenDML
File size : 2.23 GiB
Duration : 1h 49mn
Overall bit rate : 2 908 Kbps
Movie name : Специалист / The Specialist (1994)
Director : MECHANICAL ENGINEER (Blu-Ray)
Writing application : VirtualDubMod 1.5.10.2 (build 2540/release)
Writing library : VirtualDubMod build 2540/release
Copyright : HQ-ViDEO
Comment : 04.09.2011
Video
ID : 0
Format : MPEG-4 Visual
Format profile : Advanced Simple@L5
Format settings, BVOP : 1
Format settings, QPel : No
Format settings, GMC : No warppoints
Format settings, Matrix : Custom
Codec ID : XVID
Codec ID/Hint : XviD
Duration : 1h 49mn
Bit rate : 2 058 Kbps
Width : 704 pixels
Height : 400 pixels
Display aspect ratio : 16:9
Frame rate : 23.976 fps
Color space : YUV
Chroma subsampling : 4:2:0
Bit depth : 8 bits
Scan type : Progressive
Compression mode : Lossy
Bits/(Pixel*Frame) : 0.305
Stream size : 1.58 GiB (71%)
Writing library : XviD 64
Audio #1
ID : 1
Format : AC-3
Format/Info : Audio Coding 3
Mode extension : CM (complete main)
Codec ID : 2000
Duration : 1h 49mn
Bit rate mode : Constant
Bit rate : 448 Kbps
Channel(s) : 6 channels
Channel positions : Front: L C R, Side: L R, LFE
Sampling rate : 48.0 KHz
Bit depth : 16 bits
Compression mode : Lossy
Stream size : 352 MiB (15%)
Alignment : Split accross interleaves
Interleave, duration : 42 ms (1.00 video frame)
Interleave, preload duration : 500 ms
Audio #2
ID : 2
Format : AC-3
Format/Info : Audio Coding 3
Mode extension : CM (complete main)
Codec ID : 2000
Duration : 1h 49mn
Bit rate mode : Constant
Bit rate : 384 Kbps
Channel(s) : 6 channels
Channel positions : Front: L C R, Side: L R, LFE
Sampling rate : 48.0 KHz
Bit depth : 16 bits
Compression mode : Lossy
Stream size : 302 MiB (13%)
Alignment : Split accross interleaves
Interleave, duration : 42 ms (1.00 video frame)
Interleave, preload duration : 500 ms



Скачать Специалист.The.Specialist.(Луис.Льоса).[1994.боевик.BDRip].[VO.Е.Гаевский].torrent без регистрации
Золото ЗОЛОТАЯ РАЗДАЧА! СКАЧАННОЕ НЕ ЗАСЧИТЫВАЕТСЯ! Золото
Дата: Зарегистрирован   [ Тип: внутренний ] Как тут cкачать?
MAGNET ссылка
MAGNET ссылка


Скачать .torrent

12 KB

Статус: проверено DHT
Скачан: торрент - 150 раз, раздача полностью - 14 раз
Размер: 2,23 GB
Оценка:  - (Голосов: 0)
Поблагодарили: 5
Поделиться ссылкой на эту раздачу с друзьями:
В контактеFacebookОдноклассникиTwitterLivejournalМой МирLiveinternet
 

 
Показать сообщения:    


Вы не можете начинать темы
Вы не можете отвечать на сообщения
Вы не можете редактировать свои сообщения
Вы не можете удалять свои сообщения
Вы не можете голосовать в опросах
Вы не можете прикреплять файлы к сообщениям
Вы можете скачивать файлы