Loading...
Error

Скачать Игра престолов / Game of Thrones (сезоны 01-03) (Брайан Кирк и др.) [2011-2013, драма, фэнтези, приключения, HDTVRip] [720p] [MVO (LostFilm)] торрент без регистрации

 
Статистика раздачи
Размер:  61,25 GB   |    Скачан:  612 раз
Сидов:  1  [  0 KB/s  ]  
 
Автор Сообщение

МихаНЕзатор

[] 

Название: Игра престолов
Оригинальное название: Game of Thrones
Год выпуска: 2011-2013
Жанр: драма, фэнтези, приключения
Режиссер: Брайан Кирк, Даниэль Минахан, Алан Тейлор, Дэвид Петрарка, Дэвид Наттер

В ролях: Шон Бин, Николай Костер-Валдау, Лина Хиди, Иэн Глен, Питер Динклэйдж, Эмилия Кларк, Мишель Фэйрли, Эйден Гиллен, Кит Харингтон, Марк Эдди, Элфи Оуэн-Аллен, Джек Глисон, Софи Тернер, Мэйси Уильямс, Рон Донаки, Исаак Хемпстид-Райт, Джейсон Момоа, Ричард Мэдден, Джером Флинн, Конлет Хилл, Дональд Самптер, Рори МакКанн, Амрита Ачария, Чарльз Дэнс, Джон Брэдли, Кристиан Нэйрн, Сибель Кекилли, Джеймс Космо, Стивен Диллэйн, Гетин Энтони, Гвендолин Кристи, Натали Дормер, Уна Чаплин, Нонсо Анози, Роуз Лесли, Оуэн Тил

Описание: «Игра престолов» новый сериал HBO, основанный на бестселлерах Джорджа Р.Р. Мартина. В мире, где лето и зимы длятся десятилетиями, на кону корона Вестероса. Предательство, похоть, интриги и сверхъестественные силы сотрясают все четыре стороны Королевства — от плетущего интриги юга, диких восточных земель, до замерзшего севера и древней Стены, что защищает королевство от тьмы за нею. Короли и королевы, рыцари и мятежники, лжецы и благородные люди борются за власть в кровавом сражении за Железный Трон.

Выпущено: США, Bighead Littlehead, Embassy Films, Home Box Office (HBO)
Продолжительность: 30 x ~ 00:57:00
Перевод: Профессиональный многоголосый - LostFilm

Качество: HDTVRip-720p
Видео: MPEG-4 AVC, ~ 5873 Кбит/с, 1280x720
Аудио rus: АС3, 6 ch, 384 Кбит/с


1 сезон

01. Север помнит / The North Remembers
02. Ночные земли / The Night Lands
03. Что мертво, умереть не может / What Is Dead May Never Die
04. Костяной Сад / Garden of Bones
05. Призрак Харренхола / The Ghost of Harrenhal
06. Старые Боги и Новые / The Old Gods and the New
07. Человек без Чести / A Man Without Honor
08. Принц Винтерфелла / The Prince of Winterfell
09. Черноводная / Blackwater
10. Валар Моргулис / Valar Morghulis

2 сезон

01. Зима близко / Winter Is Coming
02. Королевский тракт / The Kingsroad
03. Лорд Сноу / Lord Snow
04. Калеки, бастарды и сломанные вещи / Cripples, Bastards, and Broken Things
05. Волк и лев / The Wolf and the Lion
06. Золотая корона / A Golden Crown
07. Побеждай или умри / You Win or You Die
08. Остриё / The Pointy End
09. Бейелор / Baelor
10. Пламя и кровь / Fire and Blood

3 сезон

01. Валар Дохаэрис / Valar Dohaeris
02. Черные крылья, черные вести / Dark Wings, Dark Words
03. Стезя страданий / Walk of Punishment
04. Теперь его дозор окончен / And Now His Watch is Ended
05. Поцелованная огнем / Kissed by Fire
06. Подъем / The Climb
07. Медведь и прекрасная дева / The Bear and the Maiden Fair
08. Младшие Сыны / Second Sons
09. Рейны из Кастамере / The Rains of Castamere
10. Миса / Mhysa

Полное имя:E:Игра Престолов.(720).(6 ch).1.Game.of.Thrones.s01e01.(720).(6 ch).mkv
Формат : Matroska
Версия формата : Version 4 / Version 2
Размер файла : 2,64 Гбайт
Продолжительность : 1 ч. 1 м.
Общий поток : 6137 Кбит/сек
Название фильма : Game of Thrones
Дата кодирования : UTC 2013-09-18 07:05:46
Программа кодирования : mkvmerge v6.3.0 ('You can't stop me!') built on Jul 19 2013 16:27:38
Библиотека кодирования : libebml v1.3.0 + libmatroska v1.4.1

Видео
Идентификатор : 1
Формат : AVC
Формат/Информация : Advanced Video Codec
Профиль формата : High@L4.1
Параметр CABAC формата : Да
Параметр ReFrames формата : 9 кадров
Идентификатор кодека : V_MPEG4/ISO/AVC
Продолжительность : 1 ч. 1 м.
Битрейт : 5567 Кбит/сек
Ширина : 1280 пикселей
Высота : 720 пикселей
Соотношение сторон : 16:9
Режим частоты кадров : Постоянный
Частота кадров : 23,976 кадра/сек
Цветовое пространство : YUV
Субдискретизация насыщенности : 4:2:0
Битовая глубина : 8 бит
Тип развёртки : Прогрессивная
Бит/(Пиксели*Кадры) : 0.252
Размер потока : 2,40 Гбайт (91%)
Заголовок : Game of Thrones
Библиотека кодирования : x264 core 120 r2164 da19765
Настройки программы : cabac=1 / ref=9 / deblock=1:-3:-3 / analyse=0x3:0x133 / me=umh / subme=10 / psy=1 / psy_rd=0.98:0.00 / mixed_ref=1 / me_range=48 / chroma_me=1 / trellis=2 / 8x8dct=1 / cqm=0 / deadzone=21,11 / fast_pskip=0 / chroma_qp_offset=-2 / threads=12 / sliced_threads=0 / nr=0 / decimate=0 / interlaced=0 / bluray_compat=0 / constrained_intra=0 / bframes=7 / b_pyramid=2 / b_adapt=2 / b_bias=0 / direct=3 / weightb=1 / open_gop=0 / weightp=2 / keyint=240 / keyint_min=24 / scenecut=40 / intra_refresh=0 / rc=crf / mbtree=0 / crf=17.8 / qcomp=0.70 / qpmin=0 / qpmax=69 / qpstep=4 / ip_ratio=1.40 / pb_ratio=1.25 / aq=1:1.10
Язык : English
Default : Да
Forced : Нет

Аудио
Идентификатор : 2
Формат : AC-3
Формат/Информация : Audio Coding 3
Расширение режима : CM (complete main)
Параметр Endianness формата : Big
Идентификатор кодека : A_AC3
Продолжительность : 1 ч. 1 м.
Вид битрейта : Постоянный
Битрейт : 384 Кбит/сек
Каналы : 6 каналов
Расположение каналов : Front: L C R, Side: L R, LFE
Частота : 48,0 КГц
Битовая глубина : 16 бит
Метод сжатия : С потерями
Размер потока : 197 Мбайт (7%)
Заголовок : LostFilm
Язык : Russian
Default : Да
Forced : Нет



Скачать Игра.престолов.Game.of.Thrones.(сезоны.01-03).(Брайан.Кирк.и.др.).[2011-2013.драма.фэнтези.приключения.HDTVRip].[720p].[MVO.(LostFilm)].torrent без регистрации
Золото ЗОЛОТАЯ РАЗДАЧА! СКАЧАННОЕ НЕ ЗАСЧИТЫВАЕТСЯ! Золото
Дата: Зарегистрирован   [ Тип: внутренний ] Как тут cкачать?
MAGNET ссылка
MAGNET ссылка


Скачать .torrent

309 KB

Статус: проверено DHT
Скачан: торрент - 612 раз, раздача полностью - 515 раз
Размер: 61,25 GB
Оценка:  4,8 (Голосов: 9)
Поблагодарили: 20
Поделиться ссылкой на эту раздачу с друзьями:
В контактеFacebookОдноклассникиTwitterLivejournalМой МирLiveinternet
 

 
Показать сообщения:    


Вы не можете начинать темы
Вы не можете отвечать на сообщения
Вы не можете редактировать свои сообщения
Вы не можете удалять свои сообщения
Вы не можете голосовать в опросах
Вы не можете прикреплять файлы к сообщениям
Вы можете скачивать файлы