Loading...
Error

Скачать Настоящий детектив / True Detective (сезоны 01-02) (Кэри Фукунага) [2014-2015, драма, криминал, BDRip] [720p] [MVO (Amedia)]+[Eng]+[Sub Rus, Eng] торрент без регистрации

 
Статистика раздачи
Размер:  35,24 GB   |    Скачан:  574 раза
Сидов:  1  [  0 KB/s  ]  
 
Автор Сообщение

МихаНЕзатор

[] 


"Настоящий Детектив"

Информация о фильме:
Название: Настоящий детектив
Оригинальное название: True Detective
Год выхода: 2014-2015
Жанр: Драма, криминал
Режиссер: Дуан Кларк, Майк Рол, Брэд Тернер

В ролях: Мэттью МакКонахи, Вуди Харрельсон, Мишель Монахэн, Брюс Эллиотт, Рендал Гонсалес, Тори Киттлз, Дэвид Стивен Митчелл

Описание фильма: Главные герои два детектива. В 2012 году в штате Луизиана повторно открывается дело о серийном убийстве в 1995 году. Детективы познакомились 17 лет назад, когда началось расследование, и с тех пор вместе охотились за киллером. Повествование будет вестись как в наше время, так и откатится назад, в середину девяностых.



Страна: США
Продолжительность: ~ 00:59:00 серия
Перевод: Профессиональный (многоголосый, закадровый) - Amedia

Информация о файле:
Формат: MKV | X264
Качество: BDRip 720p
Видео: ~ 4444 kbps, 1280x720 (16:9)
Аудио RUS: AC3, 48.0 KHz, 6 ch, 384 kbps
Аудио ENG: AC3, 48.0 KHz, 6 ch, 448 kbps
Субтитры: | Русские | Английские

АНОНСЫ ПОПУЛЯРНЫХ РАЗДАЧ


Торент обновлён, улучшен видеоряд, добавлен 2-й сезон!

Сезон 1

01. Огромная яркая темнота / The Long Bright Dark
02. Галлюцинации / Seeing Things
03. Закрытая комната / The Locked Room
04. Кто туда пойдет / Who Goes There
05. Тайная судьба всей жизни / The Secret Fate of All Life
06. Дома с привидениями / Haunted Houses
07. После того, как ты ушел / After You've Gone
08. Форма и пустота / Form and Void

Сезон 2

01. Западная книга мертвых / The Western Book of the Dead
02. Тебя застанет ночь / Night Finds You
03. Может, завтра / Maybe Tomorrow
04. Падение / Down Will Come
05. Другие жизни / Other Lives
06. Церковь в руинах / Church in Ruins
07. Чёрные карты и номера мотеля / Black Maps and Motel Rooms
08. Конечная станция / Omega Station

рип, работа со звуком и субтитрами qqss44
запись звука BS666, Nez
русская дорожка в исходном виде (не перетягивалась, не пережималась)
субтитры: русские (Amedia), английские

Общее
Уникальный идентификатор : 210370646787925027004343242787132157257 (0x9E43E9ADB67C729C974EBEB99C2A2D49)
Формат : Matroska
Версия формата : Version 2
Размер файла : 2,19 Гбайт
Продолжительность : 57 м.
Общий поток : 5469 Кбит/сек
Название фильма : True.Detective.S01E01
Дата кодирования : UTC 2016-01-22 09:02:23
Программа кодирования : mkvmerge v7.9.0 ('Birds') 64bit
Библиотека кодирования : libebml v1.3.1 + libmatroska v1.4.2
DURATION : 00:57:18.336000000
NUMBER_OF_FRAMES : 107448
NUMBER_OF_BYTES : 192546816
_STATISTICS_WRITING_APP : mkvmerge v7.9.0 ('Birds') 64bit
_STATISTICS_WRITING_DATE_UTC : 2016-01-22 09:02:23
_STATISTICS_TAGS : BPS DURATION NUMBER_OF_FRAMES NUMBER_OF_BYTES

Видео
Идентификатор : 1
Формат : AVC
Формат/Информация : Advanced Video Codec
Профиль формата : High@L4.1
Параметр CABAC формата : Да
Параметр ReFrames формата : 9 кадров
Идентификатор кодека : V_MPEG4/ISO/AVC
Продолжительность : 57 м.
Битрейт : 4444 Кбит/сек
Ширина : 1280 пикселей
Высота : 720 пикселей
Соотношение сторон : 16:9
Режим частоты кадров : Постоянный
Частота кадров : 25,000 кадров/сек
Цветовое пространство : YUV
Субдискретизация насыщенности : 4:2:0
Битовая глубина : 8 бит
Тип развёртки : Прогрессивная
Бит/(Пиксели*Кадры) : 0.193
Размер потока : 1,81 Гбайт (83%)
Библиотека кодирования : x264 core 130 r2273 b3065e6
Настройки программы : cabac=1 / ref=9 / deblock=1:-1:-1 / analyse=0x3:0x133 / me=umh / subme=11 / psy=1 / psy_rd=1.00:0.20 / mixed_ref=1 / me_range=32 / chroma_me=1 / trellis=2 / 8x8dct=1 / cqm=0 / deadzone=21,11 / fast_pskip=0 / chroma_qp_offset=-3 / threads=12 / lookahead_threads=2 / sliced_threads=0 / nr=0 / decimate=0 / interlaced=0 / bluray_compat=0 / constrained_intra=0 / bframes=9 / b_pyramid=2 / b_adapt=2 / b_bias=0 / direct=3 / weightb=1 / open_gop=0 / weightp=2 / keyint=240 / keyint_min=23 / scenecut=40 / intra_refresh=0 / rc=2pass / mbtree=0 / bitrate=4444 / ratetol=1.0 / qcomp=0.60 / qpmin=0 / qpmax=69 / qpstep=4 / cplxblur=20.0 / qblur=0.5 / ip_ratio=1.40 / pb_ratio=1.30 / aq=1:1.00
Язык : English
Default : Да
Forced : Нет
DURATION : 00:57:18.360000000
NUMBER_OF_FRAMES : 85959
NUMBER_OF_BYTES : 1992098003
_STATISTICS_WRITING_APP : mkvmerge v7.9.0 ('Birds') 64bit
_STATISTICS_WRITING_DATE_UTC : 2016-01-22 09:02:23
_STATISTICS_TAGS : BPS DURATION NUMBER_OF_FRAMES NUMBER_OF_BYTES

Аудио #1
Идентификатор : 2
Формат : AC-3
Формат/Информация : Audio Coding 3
Расширение режима : CM (complete main)
Параметр Endianness формата : Big
Идентификатор кодека : A_AC3
Продолжительность : 57 м.
Вид битрейта : Постоянный
Битрейт : 384 Кбит/сек
Каналы : 6 каналов
Расположение каналов : Front: L C R, Side: L R, LFE
Частота : 48,0 КГц
Метод сжатия : С потерями
Размер потока : 157 Мбайт (7%)
Язык : Russian
Default : Да
Forced : Нет

Аудио #2
Идентификатор : 3
Формат : AC-3
Формат/Информация : Audio Coding 3
Расширение режима : CM (complete main)
Параметр Endianness формата : Big
Идентификатор кодека : A_AC3
Продолжительность : 57 м.
Вид битрейта : Постоянный
Битрейт : 448 Кбит/сек
Каналы : 6 каналов
Расположение каналов : Front: L C R, Side: L R, LFE
Частота : 48,0 КГц
Метод сжатия : С потерями
Размер потока : 184 Мбайт (8%)
Язык : English
Default : Нет
Forced : Нет

Текст #1
Идентификатор : 4
Формат : UTF-8
Идентификатор кодека : S_TEXT/UTF8
Идентификатор кодека/Информация : UTF-8 Plain Text
Язык : Russian
Default : Нет
Forced : Нет

Текст #2
Идентификатор : 5
Формат : UTF-8
Идентификатор кодека : S_TEXT/UTF8
Идентификатор кодека/Информация : UTF-8 Plain Text
Язык : English
Default : Нет
Forced : Нет



Скачать Настоящий.детектив.True.Detective.(сезоны.01-02).(Кэри.Фукунага).[2014-2015.драма.криминал.BDRip].[720p].[MVO.(Amedia)]+[Eng]+[Sub.Rus.Eng].torrent без регистрации
Золото ЗОЛОТАЯ РАЗДАЧА! СКАЧАННОЕ НЕ ЗАСЧИТЫВАЕТСЯ! Золото
Дата: Зарегистрирован   [ Тип: внутренний ] Как тут cкачать?
MAGNET ссылка
MAGNET ссылка


Скачать .torrent

178 KB

Статус: проверено DHT
Скачан: торрент - 574 раз, раздача полностью - 4 раз
Размер: 35,24 GB
Оценка:  5 (Голосов: 1)
Поблагодарили: 10
Поделиться ссылкой на эту раздачу с друзьями:
В контактеFacebookОдноклассникиTwitterLivejournalМой МирLiveinternet
 

 

shant1974

[] 

сериал очень интересный и качественный...одна из лучших работ МакКонахи и Харельсона...супер!!!
 

МихаНЕзатор

[] 

Раздача обновлена
 
Показать сообщения:    


Вы не можете начинать темы
Вы не можете отвечать на сообщения
Вы не можете редактировать свои сообщения
Вы не можете удалять свои сообщения
Вы не можете голосовать в опросах
Вы не можете прикреплять файлы к сообщениям
Вы можете скачивать файлы