Loading...
Error

Скачать Элементарно / Elementary (Полный 1-ый сезон) (Джон Дэвид Коулз, Майкл Куэста, Род Холкомб) [2012-2013, драма, криминал, детектив, WEB-DLRip] [720p] [MVO (NewStudio)] торрент без регистрации

 
Статистика раздачи
Размер:  35,07 GB   |    Скачан:  246 раз
Сидов:  1  [  0 KB/s  ]  
 
Автор Сообщение

МихаНЕзатор

[] 

Элементарно / Elementary

Год выпуска: 2012
Страна: США | CBS
Жанр: драма, криминал, детектив
Продолжительность: ~ 44 минуты
Перевод: Профессиональный (многоголосый, закадровый) - NewStudio
Субтитры: Нет
Режиссёр: Майкл Куэста
В ролях: Джонни Ли Миллер, Люси Лью, Эйдан Куинн, Билл Хек, Уорд Хортон, Мэнни Перез и другие...

Описание: Новое воплощение героя Конан-Дойла, на сей раз в современном Нью- Йорке. Холмс бывший консультант Скотланд-Ярда, который, вместе с Джоан Ватсон, помогает раскрывать преступления Нью-Йоркской полиции.

Качество: WEB-DL 720p
Формат: MKV
Видео кодек: H.264
Аудио кодек: AC3
Видео: 1280x720 (16:9), 23.976 fps, ~4000 kbps, ~0.180 bit/pixel
Аудио Rus: 48 kHz, 6 ch, ~384 kbps |NewStudio|
Аудио Eng: 48 kHz, 6 ch, ~384 kbps |Original|



Озвучка: Наталья Ланц, Михаил Шорыгин, Константин Погодаев, Александр Дасевич (с 7 серии)
Перевод: Альберт Фасхутдинов, Александра Цернант (8, 9), weirdie (9)
Работа со звуком: Михаил Шорыгин

23.05.2013 г. торент обновлён, добавлена 23-24 серия!

01. Пилот (Pilot)
02. Пока ты спала (While You Were Sleeping)
03. Пожиратель детей (Child Predator)
04. Крысиные бега (The Rat Race)
05. Меньшее зло (Lesser Evils)
06. Опасный полет (Flight Risk)
07. Выйти сухим из воды (One Way to Get Off)
08. Длинный запал (The Long Fuse)
09. Доконать себя (You Do It to Yourself)
10. Левиафан (The Leviathan)
11. Копаясь в грязном белье (Dirty Laundry)
12. М. (M.)
13. Команда красных (The Red Team)
14. Гений дедукции (The Deductionist)
15. Огромная пушка, заряженная наркотиком (A Giant Gun, Filled with Drugs)
16. Детали (Details)
17. Второй вариант (Possibility Two)
18. Дежа вю снова и снова (Déjà Vu All Over Again)
19. Снежные ангелы (Snow Angels)
20. Страховка мертвеца (Dead Man's Switch)

Общее
Формат : Matroska
Версия формата : Version 2
Размер файла : 1,55 Гбайт
Продолжительность : 45 м.
Общий поток : 4847 Кбит/сек
Дата кодирования : UTC 2012-09-29 18:47:32
Программа кодирования : mkvmerge v5.7.0 ('The Whirlwind') built on Jul 8 2012 20:08:51
Библиотека кодирования : libebml v1.2.3 + libmatroska v1.3.0

Видео
Идентификатор : 1
Формат : AVC
Формат/Информация : Advanced Video Codec
Профиль формата : High@L3.1
Параметр CABAC формата : Нет
Параметр ReFrames формата : 2 кадра
Идентификатор кодека : V_MPEG4/ISO/AVC
Продолжительность : 45 м.
Битрейт : 3983 Кбит/сек
Ширина : 1280 пикселей
Высота : 720 пикселей
Соотношение сторон : 16:9
Частота кадров : 23,976 кадра/сек
Цветовое пространство : YUV
Субдискретизация насыщенности : 4:2:0
Битовая глубина : 8 бит
Тип развёртки : Прогрессивная
Бит/(Пиксели*Кадры) : 0.180
Размер потока : 1,27 Гбайт (82%)
Язык : English
Default : Да
Forced : Нет
Основные цвета : BT.709-5, BT.1361, IEC 61966-2-4, SMPTE RP177
Характеристики трансфера : BT.709-5, BT.1361
Коэффициенты матрицы : BT.709-5, BT.1361, IEC 61966-2-4 709, SMPTE RP177

Аудио #1
Идентификатор : 2
Формат : AC-3
Формат/Информация : Audio Coding 3
Расширение режима : CM (complete main)
Параметр Endianness формата : Big
Идентификатор кодека : A_AC3
Продолжительность : 45 м.
Вид битрейта : Постоянный
Битрейт : 384 Кбит/сек
Каналы : 6 каналов
Расположение каналов : Front: L C R, Side: L R, LFE
Частота : 48,0 КГц
Битовая глубина : 16 бит
Метод сжатия : С потерями
Размер потока : 126 Мбайт (8%)
Язык : Russian
Default : Да
Forced : Нет

Аудио #2
Идентификатор : 3
Формат : AC-3
Формат/Информация : Audio Coding 3
Расширение режима : CM (complete main)
Параметр Endianness формата : Big
Идентификатор кодека : A_AC3
Продолжительность : 45 м.
Вид битрейта : Постоянный
Битрейт : 384 Кбит/сек
Каналы : 6 каналов
Расположение каналов : Front: L C R, Side: L R, LFE
Частота : 48,0 КГц
Битовая глубина : 16 бит
Метод сжатия : С потерями
Размер потока : 126 Мбайт (8%)
Язык : English
Default : Нет
Forced : Нет

Внимание! Раздача ведётся путём добавления новых серий; при каждом добавлении создётся новый торрент. Чтобы начать докачку новой серии, пользователям необходимо сделать следующее:

Остановить скачивание.
Удалить старый торрент у себя из клиента (старые серии удалять не надо).
Скачать новый торрент и запустить его у себя в клиенте вместо старого, при этом указать клиенту путь в старую папку куда и должно происходить скачивание новых серий.

Ваш клиент при этом должен произвести хеширование (проверку) старой папки (если не производит сам - помогите ему сделать это), и будет докачивать только те серии которых у вас ещё нет. Старые серии при этом не удаляются, а продолжают раздаваться!
Eсли вы уже удалили старые серии, то предотвратить повторную закачку старых серий можно, отжав галочку в соответсвующих местах при запуске нового торрента. По возможности, желательно не удалять старые серии как можно дольше чтобы релизёр не столько продолжал раздавать старые серии, а смог сконцентрироваться на новых.



Скачать Элементарно.Elementary.(Полный.1-ый.сезон).(Джон.Дэвид.Коулз.Майкл.Куэста.Род.Холкомб).[2012-2013.драма.криминал.детектив.WEB-DLRip].[720p].[MVO.(NewStudio)].torrent без регистрации
Золото ЗОЛОТАЯ РАЗДАЧА! СКАЧАННОЕ НЕ ЗАСЧИТЫВАЕТСЯ! Золото
Дата: Зарегистрирован   [ Тип: внутренний ] Как тут cкачать?
MAGNET ссылка
MAGNET ссылка


Скачать .torrent

178 KB

Статус: проверено DHT
Скачан: торрент - 246 раз, раздача полностью - 13 раз
Размер: 35,07 GB
Оценка:  - (Голосов: 0)
Поблагодарили: 6
Поделиться ссылкой на эту раздачу с друзьями:
В контактеFacebookОдноклассникиTwitterLivejournalМой МирLiveinternet
 

 

МихаНЕзатор

[] 

Раздача обновлена.
 

leon030982

[] 

обновлено az
 
Показать сообщения:    


Вы не можете начинать темы
Вы не можете отвечать на сообщения
Вы не можете редактировать свои сообщения
Вы не можете удалять свои сообщения
Вы не можете голосовать в опросах
Вы не можете прикреплять файлы к сообщениям
Вы можете скачивать файлы