Loading...
Error

Скачать Неоспоримый 2 / Undisputed 2: Last Man Standing (Айзек Флорентайн) [2006, США, Криминал, спорт, драма, HDRip] [MVO] [Лицензия R5] торрент без регистрации

 
Статистика раздачи
Размер:  1,45 GB   |    Скачан:  352 раза
Сидов:  1  [  0 KB/s  ]  
 
Автор Сообщение

МихаНЕзатор

[] 

Неоспоримый 2 / Undisputed 2: Last Man Standing
Страна: США
Жанр: Криминал, спорт, драма
Год выпуска: 2006
Продолжительность: 01:37:36
Перевод: Профессиональный (многоголосый закадровый) R5
Cубтитры: нет
Режиссер: Айзек Флорентайн / Isaac Florentine

В ролях: Майкл Джей Уайт, Скотт Эдкинс , Бен Кросс, Эли Данкер, Марк Иванир, Кен Лернер, Дэйзи Лэнг, Сильвио Шимач, Ивайло Герасков, Валентин Ганев

Описание: Бывший чемпион мира по боксу во время визита в Россию случайно попадает в криминальную разборку, связанную с высшими правительственными чинами и против него фабрикуется ложное дело. Дорога домой будет долгой и трудной, проходящей через суровую российскую тюрьму…



Качество видео: HDRip ()
Формат видео: AVI
Видео: Xvid 704x384 23.98fps~1668 kbps
Аудио: |RUS| Dolby AC3 48000Hz 6ch 448 Kbps / MVO
Общее
Полное имя : F:\Раздачи\Obsuzhdeniju.ne.podlezhit.2.HDRip.Xvid.AC3.avi
Формат : AVI
Формат/Информация : Audio Video Interleave
Размер файла : 1,45 Гбайт
Продолжительность : 1 ч. 37 м.
Общий поток : 2125 Кбит/сек
Программа кодирования : VirtualDubMod 1.5.10.2 (build 2540/release)
Библиотека кодирования : VirtualDubMod build 2540/release
Видео
Идентификатор : 0
Формат : MPEG-4 Visual
Профиль формата : Advanced Simple@L5
Параметр BVOP формата : 1
Параметр QPel формата : Да
Параметр GMC формата : Без точки перехода
Параметр матрицы формата : Выборочная
Идентификатор кодека : XVID
Идентификатор кодека/Подсказка : XviD
Продолжительность : 1 ч. 37 м.
Битрейт : 1668 Кбит/сек
Ширина : 704 пикселя
Высота : 384 пикселя
Соотношение сторон : 16:9
Частота кадров : 23,976 кадра/сек
Цветовое пространство : YUV
Субдискретизация насыщенности : 4:2:0
Битовая глубина : 8 бит
Тип развёртки : Прогрессивная
Метод сжатия : С потерями
Бит/(Пиксели*Кадры) : 0.257
Размер потока : 1,14 Гбайт (78%)
Библиотека кодирования : XviD 1.2.1 (UTC 2008-12-04)
Аудио
Идентификатор : 1
Формат : AC-3
Формат/Информация : Audio Coding 3
Расширение режима : CM (complete main)
Идентификатор кодека : 2000
Продолжительность : 1 ч. 37 м.
Вид битрейта : Постоянный
Битрейт : 448 Кбит/сек
Каналы : 6 каналов
Расположение каналов : Front: L C R, Side: L R, LFE
Частота : 48,0 КГц
Битовая глубина : 16 бит
Метод сжатия : С потерями
Размер потока : 313 Мбайт (21%)
Выравнивание : Разделение по промежуткам
Продолжительность промежутка : 42 мс. (1,00 видеокадр)
Время предзагрузки промежутка : 500 мс.



Скачать Неоспоримый.2.Undisputed.2.Last.Man.Standing.(Айзек.Флорентайн).[2006.США.Криминал.спорт.драма.HDRip].[MVO].[Лицензия.R5].torrent без регистрации
Золото ЗОЛОТАЯ РАЗДАЧА! СКАЧАННОЕ НЕ ЗАСЧИТЫВАЕТСЯ! Золото
Дата: Зарегистрирован   [ Тип: внутренний ] Как тут cкачать?
MAGNET ссылка
MAGNET ссылка


Скачать .torrent

15 KB

Статус: проверено DHT
Скачан: торрент - 352 раз, раздача полностью - 410 раз
Размер: 1,45 GB
Оценка:  5 (Голосов: 1)
Поблагодарили: 6
Поделиться ссылкой на эту раздачу с друзьями:
В контактеFacebookОдноклассникиTwitterLivejournalМой МирLiveinternet
 

 
Показать сообщения:    


Вы не можете начинать темы
Вы не можете отвечать на сообщения
Вы не можете редактировать свои сообщения
Вы не можете удалять свои сообщения
Вы не можете голосовать в опросах
Вы не можете прикреплять файлы к сообщениям
Вы можете скачивать файлы