Loading...
Error

Скачать Список контактов / Deception (Марсель Лангенеггер) [2008, триллер, драма, криминал, детектив, BDRip] [AVC] [Dub]+[MVO] торрент без регистрации

 
Статистика раздачи
Размер:  2,19 GB   |    Скачан:  124 раза
Сидов:  1  [  0 KB/s  ]  
 
Автор Сообщение

Marsianka

[] 

Список контактов / Deception (2008) BDRip-AVC от PowerTracker

Жанр: триллер, драма, криминал, детектив
Страна: США
Режиссер: Марсель Лангенеггер
В ролях: Хью Джекман, Ивэн МакГрегор, Мишель Уильямс, Лиза Гэй Хэмилтон, Мэгги Кью, Наташа Хенстридж, Линн Коэн, Дэнни Бурстейн, Малкольм Гудвин, Шарлотта Рэмплинг, Брюс Олтмэн, Эндрю Гинсбург, Стефани Рот, Кристин Кан, Данте Спинотти, Каролина Мюллер, Agnete Oernsholt, Мелисса Рэй Махон, Рэйчел Монтец Коллинз, Холли Крюкшенк, Дебора Йэтс

Сюжет фильма: Джонатан МакУори не живёт у него нет девушки, нет семьи, друзей, и лишь карьера движет им. Однажды засидевшись допоздна в офисе, он знакомится с харизматичным и бойким молодым адвокатом Уайттом Босом. Они быстро находят общий язык, и вот Джонатан уже в ночном клубе в окружении сногсшибательных девушек, и Уайатт представляет ему «С» женщину, о которой Джонатан ранее не смел и мечтать.

Так у Джонатана появляется всё, чего ему так не хватало. Но бесплатный сыр бывает лишь в мышеловке Уайтт далеко не безгрешен, а его вмешательство в судьбу Джонатана не бескорыстно. В смертельно опасном мире Уайатта Джонатан всего лишь турист.


Мировая премьера: 24 апреля 2008
Российская премьера: 24 апреля 2008, «Парадиз»



Продолжительность: 01:47:49
Качество видео: BDRip-AVC
Видео: кодек: x264, размер кадра: 1024x426, битрейт: 2069 кб/с, bit/pixel: 0.198
Аудио #1: язык: Русский , перевод: Профессиональный дублированный (дубляж), кодек: AC3 5.1, битрейт: 320.00 кб/с
Аудио #2: язык: Украинский , перевод: Профессиональный многоголосый закадровый (1+1), кодек: AC3 5.1, битрейт: 320.00 кб/с
Аудио #3: язык: Английский , перевод: оригинал, кодек: AC3 2.0, битрейт: 192.00 кб/с

&
Общее
Уникальный идентификатор : 184349187335466149253487369843209526602 (0x8AB05CACC57BBDB781E04282B5B1DD4A)
Полное имя : D:РоздачиDeception.2008.BDRip-AVC.PT.mkv
Формат : Matroska
Версия формата : Version 2
Размер файла : 2,19 Гбайт
Продолжительность : 1 ч. 47 м.
Общий поток : 2902 Кбит/сек
Название фильма : Список контактов / Deception (2008) BDRip-AVC rip by rulya74
Дата кодирования : UTC 2012-01-24 05:53:14
Программа кодирования : mkvmerge v4.9.1 ('Ich will') сборка от Jul 11 2011 23:53:15
Библиотека кодирования : libebml v1.2.1 + libmatroska v1.1.1

Видео
Идентификатор : 1
Формат : AVC
Формат/Информация : Advanced Video Codec
Профиль формата : High@L4.1
Параметр CABAC формата : Да
Параметр ReFrames формата : 7 кадров
Идентификатор кодека : V_MPEG4/ISO/AVC
Продолжительность : 1 ч. 47 м.
Битрейт : 2069 Кбит/сек
Ширина : 1024 пикселя
Высота : 426 пикселей
Соотношение сторон : 2,40:1
Частота кадров : 23,976 кадра/сек
Цветовое пространство : YUV
Субдискретизация насыщенности : 4:2:0
Битовая глубина : 8 бит
Тип развёртки : Прогрессивная
Бит/(Пиксели*Кадры) : 0.198
Размер потока : 1,52 Гбайт (69%)
Библиотека кодирования : x264 core 116 r2074 2641b9e
Настройки программы : cabac=1 / ref=7 / deblock=1:-3:-3 / analyse=0x3:0x113 / me=umh / subme=9 / psy=1 / psy_rd=1.00:0.00 / mixed_ref=1 / me_range=32 / chroma_me=1 / trellis=2 / 8x8dct=1 / cqm=0 / deadzone=21,11 / fast_pskip=1 / chroma_qp_offset=-2 / threads=3 / sliced_threads=0 / nr=0 / decimate=1 / interlaced=0 / bluray_compat=0 / constrained_intra=0 / bframes=5 / b_pyramid=2 / b_adapt=1 / b_bias=0 / direct=3 / weightb=1 / open_gop=0 / weightp=2 / keyint=250 / keyint_min=23 / scenecut=40 / intra_refresh=0 / rc=2pass / mbtree=0 / bitrate=2069 / ratetol=1.0 / qcomp=0.60 / qpmin=10 / qpmax=51 / qpstep=4 / cplxblur=20.0 / qblur=0.5 / ip_ratio=1.40 / pb_ratio=1.30 / aq=1:1.00
Default : Да
Forced : Нет

Аудио #1
Идентификатор : 2
Формат : AC-3
Формат/Информация : Audio Coding 3
Расширение режима : CM (complete main)
Идентификатор кодека : A_AC3
Продолжительность : 1 ч. 47 м.
Вид битрейта : Постоянный
Битрейт : 320 Кбит/сек
Каналы : 6 каналов
Расположение каналов : Front: L C R, Side: L R, LFE
Частота : 48,0 КГц
Битовая глубина : 16 бит
Метод сжатия : С потерями
Размер потока : 247 Мбайт (11%)
Заголовок : Дубляж
Язык : Russian
Default : Да
Forced : Нет

Аудио #2
Идентификатор : 3
Формат : AC-3
Формат/Информация : Audio Coding 3
Расширение режима : CM (complete main)
Идентификатор кодека : A_AC3
Продолжительность : 1 ч. 47 м.
Вид битрейта : Постоянный
Битрейт : 320 Кбит/сек
Каналы : 6 каналов
Расположение каналов : Front: L C R, Side: L R, LFE
Частота : 48,0 КГц
Битовая глубина : 16 бит
Метод сжатия : С потерями
Размер потока : 247 Мбайт (11%)
Заголовок : MVO (1+1)
Язык : Ukrainian
Default : Нет
Forced : Нет

Аудио #3
Идентификатор : 4
Формат : AC-3
Формат/Информация : Audio Coding 3
Расширение режима : CM (complete main)
Идентификатор кодека : A_AC3
Продолжительность : 1 ч. 47 м.
Вид битрейта : Постоянный
Битрейт : 192 Кбит/сек
Каналы : 2 канала
Расположение каналов : Front: L R
Частота : 48,0 КГц
Битовая глубина : 16 бит
Метод сжатия : С потерями
Размер потока : 148 Мбайт (7%)
Заголовок : Оригинал
Язык : English
Default : Нет
Forced : Нет



Скачать Список.контактов.Deception.(Марсель.Лангенеггер).[2008.триллер.драма.криминал.детектив.BDRip].[AVC].[Dub]+[MVO].torrent без регистрации
Золото ЗОЛОТАЯ РАЗДАЧА! СКАЧАННОЕ НЕ ЗАСЧИТЫВАЕТСЯ! Золото
Дата: Зарегистрирован   [ Тип: внутренний ] Как тут cкачать?
MAGNET ссылка
MAGNET ссылка


Скачать .torrent

11 KB

Статус: проверено DHT
Скачан: торрент - 124 раз, раздача полностью - 98 раз
Размер: 2,19 GB
Оценка:  5 (Голосов: 1)
Поблагодарили: 3
Поделиться ссылкой на эту раздачу с друзьями:
В контактеFacebookОдноклассникиTwitterLivejournalМой МирLiveinternet
 

 
Показать сообщения:    


Вы не можете начинать темы
Вы не можете отвечать на сообщения
Вы не можете редактировать свои сообщения
Вы не можете удалять свои сообщения
Вы не можете голосовать в опросах
Вы не можете прикреплять файлы к сообщениям
Вы можете скачивать файлы