Loading...
Error

Скачать Река / The River (сезон 01 полный) (Жауме Серра, Кеннет Финк, Дин Уайт) [2012, ужасы, драма, приключения,​​ триллер, WEB-DL] [720p] [MVO] торрент без регистрации

Статистика раздачи
Размер:  11,27 GB   |    Скачан:  190 раз
Сидов:  1  [  0 KB/s  ]  

 
 
 
Автор Сообщение

МихаНЕзатор

[] 

Информация о фильме
Название: Река
Оригинальное название: The River
Год выхода: 2012
Жанр: ужасы, драма, приключения, триллер
Режиссер: Жауме Серра, Кеннет Финк, Дин Уайт

В ролях: Брюс Гринвуд, Джо Андерсон, Лесли Хоуп, Элуиз Мамфорд, Пол Блекторн, Томас Кречманн, Дэниэл Зацапа, Шон Паркес, Паулина Гайтан, Джеф Галфер

О фильме:
В джунглях Южной Америки пропала небольшая экспедиция, отправившаяся разыскивать затерянное племя в верховьях Амазонки. Они не отвечали на вызовы и не прибыли в контрольную точку. Через некоторое время вторая группа исследователей решила отправиться на поиски пропавшей экспедиции. Им предстоит пройти через неимоверные испытания, чтобы понять, что же произошло на самом деле

Страна: США
Продолжительность: ~ 00:45:00
Перевод: Профессиональный многоголосый закадровый (Now)

Файл
Кодек: H.264
Качество: WEB-DL 720p
Видео: AVC at 3 971 Kbps 1280 x 720 (1.778) at 23.976 fps 0.180 bit/pixel
Звук:
Rus: AC-3 at 192 Kbps 2 channels, 48.0 KHz
Eng: AC-3 at 384 Kbps 6 channels, 48.0 KHz



11.04.2012 г. торент обновлён, сериал залит полностью!
General
Unique ID : 229924263808408663071067496440133536680 (0xACF9CD6E153368E081E92AF32EDF4BA8)
Complete name : F:ФТП 2WorkOtherRiver Season 1 720pRiver.s01e01.rus.eng.720p.mkv
Format : Matroska
Format version : Version 2
File size : 1.42 GiB
Duration : 43mn 43s
Overall bit rate : 4 639 Kbps
Encoded date : UTC 2012-02-09 18:06:44
Writing application : mkvmerge v4.9.1 ('Ich will') сборка от Jul 11 2011 23:53:15
Writing library : libebml v1.2.1 + libmatroska v1.1.1

Video
ID : 1
Format : AVC
Format/Info : Advanced Video Codec
Format profile : High@L3.1
Format settings, CABAC : No
Format settings, ReFrames : 2 frames
Codec ID : V_MPEG4/ISO/AVC
Duration : 43mn 42s
Bit rate : 3 971 Kbps
Width : 1 280 pixels
Height : 720 pixels
Display aspect ratio : 16:9
Frame rate : 23.976 fps
Color space : YUV
Chroma subsampling : 4:2:0
Bit depth : 8 bits
Scan type : Progressive
Bits/(Pixel*Frame) : 0.180
Stream size : 1.21 GiB (86%)
Color primaries : BT.709-5, BT.1361, IEC 61966-2-4, SMPTE RP177
Transfer characteristics : BT.709-5, BT.1361
Matrix coefficients : BT.709-5, BT.1361, IEC 61966-2-4 709, SMPTE RP177

Audio #1
ID : 2
Format : AC-3
Format/Info : Audio Coding 3
Mode extension : CM (complete main)
Codec ID : A_AC3
Duration : 43mn 43s
Bit rate mode : Constant
Bit rate : 192 Kbps
Channel(s) : 2 channels
Channel positions : Front: L R
Sampling rate : 48.0 KHz
Bit depth : 16 bits
Compression mode : Lossy
Stream size : 60.0 MiB (4%)
Language : Russian

Audio #2
ID : 3
Format : AC-3
Format/Info : Audio Coding 3
Mode extension : CM (complete main)
Codec ID : A_AC3
Duration : 43mn 43s
Bit rate mode : Constant
Bit rate : 384 Kbps
Channel(s) : 6 channels
Channel positions : Front: L C R, Side: L R, LFE
Sampling rate : 48.0 KHz
Bit depth : 16 bits
Compression mode : Lossy
Stream size : 120 MiB (8%)
Language : English




Скачать Река.The.River.(сезон.01.полный).(Жауме.Серра.Кеннет.Финк.Дин.Уайт).[2012.ужасы.драма.приключения.​​.триллер.WEB-DL].[720p].[MVO].torrent без регистрации
Золото ЗОЛОТАЯ РАЗДАЧА! СКАЧАННОЕ НЕ ЗАСЧИТЫВАЕТСЯ! Золото
Дата: Зарегистрирован   [ Тип: внутренний ] Как тут cкачать?
MAGNET ссылка
MAGNET ссылка


Скачать .torrent

29 KB

Статус: проверено DHT
Скачан: торрент - 190 раз, раздача полностью - 84 раз
Размер: 11,27 GB
Оценка:  - (Голосов: 0)
Поблагодарили: 2
Поделиться ссылкой на эту раздачу с друзьями:
В контактеFacebookОдноклассникиTwitterLivejournalМой МирLiveinternet
 

 
Показать сообщения:    


Вы не можете начинать темы
Вы не можете отвечать на сообщения
Вы не можете редактировать свои сообщения
Вы не можете удалять свои сообщения
Вы не можете голосовать в опросах
Вы не можете прикреплять файлы к сообщениям
Вы можете скачивать файлы