Loading...
Error

Скачать Темный дом / Dark House (Дэрин Скотт) [2009,, ужасы, триллер, DVDRip] [VO] торрент без регистрации

 
Статистика раздачи
Размер:  698 MB   |    Скачан:  153 раза
Сидов:  1  [  0 KB/s  ]  
 
Автор Сообщение

МихаНЕзатор

[] 

Темный дом / Dark House

Страна: США, Fatal Frame Pictures / Red Shogun Pictures

Жанр: ужасы, триллер
Год выпуска: 2009
Продолжительность: 01:25:16
Перевод: Одноголосый закадровый [Den904]
Cубтитры: нет
Режиссер: Дэрин Скотт / Darin Scott

В ролях: Джеффри Комбс, Меган Ори, Дайан Салинджер, Мэтт Коэн, Шелли Коул, Дансо Гордон, Райан Меландер, Бевин Принц, Эрин Каммингс, Йен Рид Кеслер
Описание: Клэр Томпсон, испытавшая в детстве ужасную психологическую травму, пытается изгнать преследующих ее демонов прошлого и возвращается жить в старый дом, где когда-то произошло массовое убийство детей. К сожалению, демоны материализовываются, чтобы повторно испытать на прочность девушку…



Качество видео: DVDRip
Формат видео: AVI
Видео: 640x272 (2.35:1), 23.976 fps, XviD MPEG-4 ~1023 kbps avg, 0.25 bit/pixel
Аудио: 48 kHz, MPEG Layer 3, 2 ch, ~112.00 kbps avg
E:\Temnyi.dom.2009.DVDRip.700Mb.avi
General
Complete name : E:\Temnyi.dom.2009.DVDRip.700Mb.avi
Format : AVI
Format/Info : Audio Video Interleave
File size : 698 MiB
Duration : 1h 25mn
Overall bit rate : 1 145 Kbps
Writing application : VirtualDubMod 1.5.10.2 (build 2540/release)
Writing library : VirtualDubMod build 2540/release
Video #0
ID : 0
Format : MPEG-4 Visual
Format profile : Advanced Simple@L5
Format settings, BVOP : 4
Format settings, QPel : No
Format settings, GMC : No warppoints
Format settings, Matrix : Default (H.263)
Muxing mode : Packed bitstream
Codec ID : XVID
Codec ID/Hint : XviD
Duration : 1h 25mn
Bit rate : 1 024 Kbps
Width : 640 pixels
Height : 272 pixels
Display aspect ratio : 2.35:1
Frame rate : 23.976 fps
Color space : YUV
Chroma subsampling : 4:2:0
Bit depth : 8 bits
Scan type : Progressive
Compression mode : Lossy
Bits/(Pixel*Frame) : 0.245
Stream size : 624 MiB (89%)
Writing library : XviD 62
Audio #1
ID : 1
Format : MPEG Audio
Format version : Version 1
Format profile : Layer 3
Mode : Joint stereo
Mode extension : MS Stereo
Codec ID : 55
Codec ID/Hint : MP3
Duration : 1h 25mn
Bit rate mode : Constant
Bit rate : 112 Kbps
Channel(s) : 2 channels
Sampling rate : 48.0 KHz
Compression mode : Lossy
Stream size : 68.2 MiB (10%)
Alignment : Aligned on interleaves
Interleave, duration : 42 ms (1.00 video frame)
Interleave, preload duration : 504 ms
Writing library : LAME3.97ªªªªªªªªªªªª



Скачать Темный.дом.Dark.House.(Дэрин.Скотт).[2009.ужасы.триллер.DVDRip].[VO].torrent без регистрации
Золото ЗОЛОТАЯ РАЗДАЧА! СКАЧАННОЕ НЕ ЗАСЧИТЫВАЕТСЯ! Золото
Дата: Зарегистрирован   [ Тип: внутренний ] Как тут cкачать?
MAGNET ссылка
MAGNET ссылка


Скачать .torrent

14 KB

Статус: проверено DHT
Скачан: торрент - 153 раз, раздача полностью - 1456 раз
Размер: 698 MB
Оценка:  - (Голосов: 0)
Поблагодарили: 0
Поделиться ссылкой на эту раздачу с друзьями:
В контактеFacebookОдноклассникиTwitterLivejournalМой МирLiveinternet
 

 
Показать сообщения:    


Вы не можете начинать темы
Вы не можете отвечать на сообщения
Вы не можете редактировать свои сообщения
Вы не можете удалять свои сообщения
Вы не можете голосовать в опросах
Вы не можете прикреплять файлы к сообщениям
Вы можете скачивать файлы