Loading...
Error

Скачать Темная сторона Луны / The Dark Side of the Moon (Ди Джей Уэбстер) [1990, ужасы, фантастика, боевик, DVDRip] [AVO] торрент без регистрации

 
Статистика раздачи
Размер:  739 MB   |    Скачан:  191 раз

Полного источника не было: 3 месяца 30 дней

 
Автор Сообщение

leon030982

[] 

Темная сторона Луны / The Dark Side of the Moon
Страна: США
Жанр: ужасы, фантастика, боевик
Год выпуска: 1990
Продолжительность: 01:27:12
Перевод: Авторский (одноголосый закадровый) Леонид Володарский
Cубтитры: нет
Режиссер: Ди Джей Уэбстер / D.J. Webster
В ролях: Роберт Сэмпсон, Уилл Бледсо, Джо Тёркел, Камилла Мор, Джон Дил, Венди МакДональд, Алан Блюменфилд, Кэн Леско
Описание: 2022 год. Космический корабль, занимающийся очень рискованным занятием — ремонтом спутников, имеющих на своём вооружении ядерные заряды, получает сигнал SOS с тёмной стороны Луны, где обнаруживает кажущийся покинутым космолет, в котором все еще обитает злая нечисть…


Качество видео: DVDRip спасибо Pucs
Формат видео: AVI
Видео: 640x480 (1.33:1), 25 fps, XviD build 64 ~1046 kbps avg, 0.14 bit/pixel
Аудио: 48 kHz, MPEG Layer 3, 2 ch, ~128.00 kbps avg спасибо KOtt97 и Мегабайт
General
Complete name : D:\Релизы\(1990) Темная сторона Луны.avi
Format : AVI
Format/Info : Audio Video Interleave
File size : 739 MiB
Duration : 1h 27mn
Overall bit rate : 1 184 Kbps
Writing application : VirtualDubMod 1.5.10.3 | www.virtualdub-fr.org || (build 2550/release)
Writing library : VirtualDubMod build 2550/release
Video
ID : 0
Format : MPEG-4 Visual
Format profile : Advanced Simple@L5
Format settings, BVOP : 1
Format settings, QPel : No
Format settings, GMC : No warppoints
Format settings, Matrix : Custom
Codec ID : XVID
Codec ID/Hint : XviD
Duration : 1h 27mn
Bit rate : 1 047 Kbps
Width : 640 pixels
Height : 480 pixels
Display aspect ratio : 4:3
Frame rate : 25.000 fps
Color space : YUV
Chroma subsampling : 4:2:0
Bit depth : 8 bits
Scan type : Progressive
Compression mode : Lossy
Bits/(Pixel*Frame) : 0.136
Stream size : 653 MiB (88%)
Writing library : XviD 64
Audio
ID : 1
Format : MPEG Audio
Format version : Version 1
Format profile : Layer 3
Mode : Joint stereo
Mode extension : MS Stereo
Codec ID : 55
Codec ID/Hint : MP3
Duration : 1h 27mn
Bit rate mode : Constant
Bit rate : 128 Kbps
Channel(s) : 2 channels
Sampling rate : 48.0 KHz
Compression mode : Lossy
Delay relative to video : 2s 472ms
Stream size : 79.8 MiB (11%)
Alignment : Split accross interleaves
Interleave, duration : 40 ms (1.00 video frame)
Interleave, preload duration : 504 ms



Скачать Темная.сторона.Луны.The.Dark.Side.of.the.Moon.(Ди.Джей.Уэбстер).[1990.ужасы.фантастика.боевик.DVDRip].[AVO].torrent без регистрации
Золото ЗОЛОТАЯ РАЗДАЧА! СКАЧАННОЕ НЕ ЗАСЧИТЫВАЕТСЯ! Золото
Дата: Зарегистрирован   [ Тип: внутренний ] Как тут cкачать?
MAGNET ссылка
MAGNET ссылка


Скачать .torrent

15 KB

Статус: проверено
Скачан: торрент - 191 раз, раздача полностью - 55 раз
Размер: 739 MB
Оценка:  - (Голосов: 0)
Поблагодарили: 2
Поделиться ссылкой на эту раздачу с друзьями:
В контактеFacebookОдноклассникиTwitterLivejournalМой МирLiveinternet
 

 
Показать сообщения:    


Вы не можете начинать темы
Вы не можете отвечать на сообщения
Вы не можете редактировать свои сообщения
Вы не можете удалять свои сообщения
Вы не можете голосовать в опросах
Вы не можете прикреплять файлы к сообщениям
Вы можете скачивать файлы