Loading...
Error

Скачать Черная метка (Срочное уведомление) / Burn Notice (Полный 4-й сезон ) (Пол Холахан, Джон Т. Кречмер, Джереми С. Чечек) [2010 г., комедия, драма, WEB-DLRip] (FilmGate) торрент без регистрации

 
Статистика раздачи
Размер:  8,79 GB   |    Скачан:  188 раз
Сидов:  1  [  0 KB/s  ]  
 
Автор Сообщение

leon030982

[] 


Черная метка / Burn Notice


Год выпуска: 2010

Страна: США
Жанр: комедия, драма
Продолжительность: ~ 00:44:00
Перевод: Любительский (многоголосый, закадровый) FilmGate
Режиссер: Пол Холахан, Джон Т. Кречмер, Джереми С. Чечек и др.
В ролях:
Джеффри Донован (Майкл Вестен), Габриел Ануар (Фиона Гленан), Брюс Кэмпбелл (Сэм Экс), Шерон Глесс (Мадлин Вестен), Тришиа Хелфер (Карла)

Описание:
«Меня зовут Майкл Вестен. Я – шпион. Я не работаю ни на одну из международных спецслужб. Мною движет лишь желание заниматься любимым делом и деньги, которые это дело приносит…» «Секретная операция в Нигерии была сорвана – меня кто-то подставил…» «Я чудом остаюсь в живых… Но теряю сознание в самолете» «Я очнулся непонятно где и обнаружил рядом свою бывшую девушку, Фиону…» «Как я оказался в Майами, городе моего детства?…» «Связные из различных спецслужб отказываются иметь со мной дело, а личные банковские счета заморожены по приказу какого-то чиновника…» «За мной постоянно следят люди из ФБР…» «Всё, что я знаю – кто-то хочет, чтобы я жил в Майами, без права выезда. В противном случае, на ноги будут подняты все силы полиции, ФБР, ЦРУ, и из такой переделки мне уже не выйти живым…» «Я хочу понять – кто меня подставил… Но для этого нужны деньги и время…» «Поэтому я буду и частным детективом, и тайным шпионом для тех, кто может себе это позволить»


Качество: WEB-DLRip
Формат: AVI
Видео кодек: DivX
Аудио кодек: MP3
Видео: 720x400 (1.80:1), 23.976 fps, DivX Codec 6.8.5/6.9.1 ~1476 kbps avg, 0.21 bit/pixel
Аудио: MPEG Audio Layer 3 48000Hz stereo 128kbps
Релиз:
Перевод и редактура: scromna, chin-chin
Роли озвучивали: kvest1, lepestky, film45
Работа с эффектами и звуком: Rysanych
Подготовка видео: barman
| Сэмпл | IMDb | КиноПоиск
Friends and Enemies
Fast Friends
Made Man
Breach of Faith
Neighborhood Watch
Entry Point
Past & Future Tense
Where There's Smoke
Center of the Storm
Hard Time
Blind Spot
Guilty As Charged
Eyes Open
Hot Property
Brotherly Love
Dead or Alive
Out of the Fire
Last Stand
General
Format : AVI
Format/Info : Audio Video Interleave
File size : 501 MiB
Duration : 43mn 52s
Overall bit rate : 1 595 Kbps
Writing application : VirtualDubMod 1.5.10.2 (build 2542/release)
Writing library : VirtualDubMod build 2542/release
Video
ID : 0
Format : MPEG-4 Visual
Format settings, BVOP : Yes
Format settings, QPel : No
Format settings, GMC : No warppoints
Format settings, Matrix : Default (H.263)
Muxing mode : Packed bitstream
Codec ID : DX50
Codec ID/Hint : DivX 5
Duration : 43mn 52s
Bit rate : 1 458 Kbps
Width : 720 pixels
Height : 400 pixels
Display aspect ratio : 16:9
Frame rate : 23.976 fps
Resolution : 8 bits
Colorimetry : 4:2:0
Scan type : Progressive
Bits/(Pixel*Frame) : 0.211
Stream size : 457 MiB (91%)
Writing library : DivX 6.8.3-6.8.4 (UTC 2008-06-07)
Audio
ID : 1
Format : MPEG Audio
Format version : Version 1
Format profile : Layer 3
Format_Settings_Mode : Joint stereo
Codec ID : 55
Codec ID/Hint : MP3
Duration : 43mn 52s
Bit rate mode : Constant
Bit rate : 128 Kbps
Channel(s) : 2 channels
Sampling rate : 48.0 KHz
Stream size : 40.2 MiB (8%)
Alignment : Aligned on interleaves
Interleave, duration : 42 ms (1.00 video frame)
Interleave, preload duration : 504 ms
Writing library : LAME3.98r
Encoding settings : -m j -V 4 -q 2 -lowpass 17 -b 128



Скачать Черная.метка.(Срочное.уведомление).Burn.Notice.(Полный.4-й.сезон.).(Пол.Холахан.Джон.Т.Кречмер.Джереми.С.Чечек).[2010.г.комедия.драма.WEB-DLRip].(FilmGate).torrent без регистрации
Золото ЗОЛОТАЯ РАЗДАЧА! СКАЧАННОЕ НЕ ЗАСЧИТЫВАЕТСЯ! Золото
Дата: Зарегистрирован   [ Тип: внутренний ] Как тут cкачать?
MAGNET ссылка
MAGNET ссылка


Скачать .torrent

46 KB

Статус: проверено DHT
Скачан: торрент - 188 раз, раздача полностью - 99 раз
Размер: 8,79 GB
Оценка:  5 (Голосов: 1)
Поблагодарили: 2
Поделиться ссылкой на эту раздачу с друзьями:
В контактеFacebookОдноклассникиTwitterLivejournalМой МирLiveinternet
 

 
Показать сообщения:    


Вы не можете начинать темы
Вы не можете отвечать на сообщения
Вы не можете редактировать свои сообщения
Вы не можете удалять свои сообщения
Вы не можете голосовать в опросах
Вы не можете прикреплять файлы к сообщениям
Вы можете скачивать файлы