Loading...
Error

Скачать Черная метка (Срочное уведомление) / Burn Notice (Сезон 5) (Пол Холахан, Джон Т. Кречмер, Джереми С. Чечек) [2011 г., комедия, драма, WEB-DLRip] [FilmGate] торрент без регистрации

 
Статистика раздачи
Размер:  8,79 GB   |    Скачан:  3606 раз
Сидов:  1  [  0 KB/s  ]  
 
Автор Сообщение

leon030982

[] 

Черная метка / Burn Notice

Год выпуска: 2011
Страна: США | USA
Жанр: криминальная драма
Продолжительность: ~00:43:00
Перевод: Любительский (многоголосный, закадровый) FilmGate
Cубтитры: нет
Режиссёр: Пол Холахан, Джон Т. Кречмер, Джереми С. Чечек
В ролях: Джеффри Донован (Майкл Вестен), Габриел Ануар (Фиона Гленан), Брюс Кэмпбелл (Сэм Экс), Шерон Глесс (Мадлин Вестен)

Описание: «Меня зовут Майкл Вестен. Я – шпион. Я не работаю ни на одну из международных спецслужб. Мною движет лишь желание заниматься любимым делом и деньги, которые это дело приносит…» «Секретная операция в Нигерии была сорвана – меня кто-то подставил…» «Я чудом остаюсь в живых… Но теряю сознание в самолете» «Я очнулся непонятно где и обнаружил рядом свою бывшую девушку, Фиону…» «Как я оказался в Майами, городе моего детства?…» «Связные из различных спецслужб отказываются иметь со мной дело, а личные банковские счета заморожены по приказу какого-то чиновника…» «За мной постоянно следят люди из ФБР…» «Всё, что я знаю – кто-то хочет, чтобы я жил в Майами, без права выезда. В противном случае, на ноги будут подняты все силы полиции, ФБР, ЦРУ, и из такой переделки мне уже не выйти живым…» «Я хочу понять – кто меня подставил… Но для этого нужны деньги и время…» «Поэтому я буду и частным детективом, и тайным шпионом для тех, кто может себе это позволить»

Как и в прошлом году серии спонсируются зрителями. Т.к. спонсоров всего 6, деньги долго собираются. Если Вы смотрите сериал, и Вам он нравится, то можете присоединиться(реквизиты ЯндексД и Вебмани указаны на сайте Фильмгейт, в сообщении писать "Черная метка от [имя]". Даже 10 руб. ускорят выход серии.

Доп. информация:
Релиз:
Перевод: Николай
Роли озвучивали: lepestky, film45, Proton, zajiga
Работа с эффектами и звуком: Chjuchja
Подготовка видео: barman

Качество: WEB-DLRip
Формат: AVI
Видео кодек: DivX
Аудио кодек: MP3
Видео: 720x400 (1.80:1), 23.976 fps, DivX Codec 6.8.5/6.9.1 ~1500 kbps avg, 0.22 bit/pixel
Аудио: 48 kHz, MPEG Layer 3, 2 ch, ~128.00 kbps avg
Внимание! Раздача ведётся путём добавления новых серий; при каждом добавлении создаётся новый торрент. Чтобы начать докачку новой серии, пользователям необходимо сделать следующее:
(1) остановить скачивание,
(2) удалить старый торрент у себя из клиента (старые серии удалять не надо),
(3) скачать новый торрент и запустить его у себя в клиенте вместо старого, при этом указать клиенту путь в старую папку куда и должно происходить скачивание новых серий.
Ваш клиент при этом должен произвести хеширование (проверку) старой папки (если не производит сам - помогите ему сделать это), и будет докачивать только те серии которых у вас ещё нет. Старые серии при этом не удаляются, а продолжают раздаваться!
Eсли вы уже удалили старые серии, то предотвратить повторную закачку старых серий можно, отжав галочку в соответствующих местах при запуске нового торрента. По возможности, желательно не удалять старые серии как можно дольше чтобы релизёр не столько продолжал раздавать старые серии, а смог сконцентрироваться на новых.

01. Company Man
02. Bloodlines
03. Mind Games
04. No Good Deed
05. Square One
06. Enemy of My Enemy
07. Beseiged
08. Hard Out
09. Eye For An Eye
10. Army of One
11. Better Halves
12. Dead To Rights
13. Damned if you Do
14. Breaking Point
15. Necessary Evil
16. Depth Perception


General
Complete name : Z:\Burn.Notice.s05.rus.web-dlrip.filmgate.tv\Burn_Notice.s05e01.rus.filmgate_tv.avi
Format : AVI
Format/Info : Audio Video Interleave
File size : 500 MiB
Duration : 42mn 39s
Overall bit rate : 1 638 Kbps
Writing application : VirtualDubMod 1.5.10.2 (build 2542/release)
Writing library : VirtualDubMod build 2542/release
Video
ID : 0
Format : MPEG-4 Visual
Format settings, BVOP : 1
Format settings, QPel : No
Format settings, GMC : No warppoints
Format settings, Matrix : Default (H.263)
Muxing mode : Packed bitstream
Codec ID : DX50
Codec ID/Hint : DivX 5
Duration : 42mn 39s
Bit rate : 1 501 Kbps
Width : 720 pixels
Height : 400 pixels
Display aspect ratio : 16:9
Frame rate : 23.976 fps
Color space : YUV
Chroma subsampling : 4:2:0
Bit depth : 8 bits
Scan type : Progressive
Compression mode : Lossy
Bits/(Pixel*Frame) : 0.217
Stream size : 458 MiB (92%)
Writing library : DivX 6.8.5 (UTC 2009-08-20)
Audio
ID : 1
Format : MPEG Audio
Format version : Version 1
Format profile : Layer 3
Mode : Joint stereo
Mode extension : MS Stereo
Codec ID : 55
Codec ID/Hint : MP3
Duration : 42mn 39s
Bit rate mode : Constant
Bit rate : 128 Kbps
Channel(s) : 2 channels
Sampling rate : 48.0 KHz
Compression mode : Lossy
Stream size : 39.1 MiB (8%)
Alignment : Aligned on interleaves
Interleave, duration : 42 ms (1.00 video frame)
Interleave, preload duration : 504 ms

[align=center]

Огромное спасибо ssmokee, xynshine, pm9 за финансовую помощь в подготовке серии.





Скачать Черная.метка.(Срочное.уведомление).Burn.Notice.(Сезон.5).(Пол.Холахан.Джон.Т.Кречмер.Джереми.С.Чечек).[2011.г.комедия.драма.WEB-DLRip].[FilmGate].torrent без регистрации
Золото ЗОЛОТАЯ РАЗДАЧА! СКАЧАННОЕ НЕ ЗАСЧИТЫВАЕТСЯ! Золото
Дата: Зарегистрирован   [ Тип: внутренний ] Как тут cкачать?
MAGNET ссылка
MAGNET ссылка


Скачать .torrent

24 KB

Статус: проверено DHT
Скачан: торрент - 3606 раз, раздача полностью - 52 раз
Размер: 8,79 GB
Оценка:  5 (Голосов: 2)
Поблагодарили: 2
Поделиться ссылкой на эту раздачу с друзьями:
В контактеFacebookОдноклассникиTwitterLivejournalМой МирLiveinternet
 

 

Tily

[] 

Сериал отличный. Великолепный ,адаптированный перевод на русский - FilmGate.
Своеобразный и очень прикольный юмор, прекрасная игра актеров, хорошо продуманный сценарий с
лихо закрученным детективным сюжетом, прекрасная операторскя работа. В общем- отличный игровой фильм. ay ay
 
Показать сообщения:    


Вы не можете начинать темы
Вы не можете отвечать на сообщения
Вы не можете редактировать свои сообщения
Вы не можете удалять свои сообщения
Вы не можете голосовать в опросах
Вы не можете прикреплять файлы к сообщениям
Вы можете скачивать файлы