Loading...
Error

Скачать Подстава / The Death and Life of Bobby Z (Джон Херцфелд) [2007, боевик, триллер, драма, криминал, HDRip] [MVO] торрент без регистрации

 
Статистика раздачи
Размер:  744 MB   |    Скачан:  151 раз

Полного источника не было: 26 минут

 
Автор Сообщение

МихаНЕзатор

[] 

Информация о фильме
Название: Подстава
Оригинальное название: The Death and Life of Bobby Z
Год выхода: 2007
Жанр: боевик, триллер, драма, криминал
Режиссер: Джон Херцфелд / John Herzfeld

В ролях: Пол Уокер, Лоуренс Фишберн, Джейсон Льюис, Оливия Уайлд, Jarrod Bunch, Джейсон Флеминг, Джейкоб Варгас, Кейт Кэррадайн, Джош Стюарт

О фильме:
Агент службы по борьбе с наркотиками Тэд Груза предлагает свободу заключенному вояке Тиму Кирни при одном условии тот должен «сыграть» недавно умершего наркобарона Бобби Зи для выполнения одной спецоперации. Но всё идет не по плану: Тим сбегает, прихватив с собой сына Бобби Зи.


Страна: США, Германия
Студия: Millennium Films, Metro-Goldwyn-Mayer
Продолжительность: 01:36:53
Перевод: Профессиональный (многоголосый, закадровый)

Файл
Кодек: XviD / MP3
Качество: HDRip
Видео: XviD, 640x272 (2.35:1), 23.976 fps, 936 Kbps (0.224 bit/pixel)
Звук: MP3, 48.0 KHz, 2 ch, 128 Kbps, CBR
General
Complete name : D:WorkThe.Death.and.Life.of.Bobby.Z_HDRip.745.MVO_[Rutor.org].avi
Format : AVI
Format/Info : Audio Video Interleave
File size : 744 MiB
Duration : 1h 36mn
Overall bit rate : 1 073 Kbps
Director : bm11
Writing application : VirtualDubMod 1.5.10.2 (build 2540/release)

Video
ID : 0
Format : MPEG-4 Visual
Format profile : Advanced Simple@L5
Format settings, BVOP : 1
Format settings, QPel : No
Format settings, GMC : No warppoints
Format settings, Matrix : Default (MPEG)
Codec ID : XVID
Codec ID/Hint : XviD
Duration : 1h 36mn
Bit rate : 936 Kbps
Width : 640 pixels
Height : 272 pixels
Display aspect ratio : 2.35:1
Frame rate : 23.976 fps
Color space : YUV
Chroma subsampling : 4:2:0
Bit depth : 8 bits
Scan type : Progressive
Compression mode : Lossy
Bits/(Pixel*Frame) : 0.224
Stream size : 648 MiB (87%)
Writing library : XviD 1.2.0.dev47 (UTC 2006-11-01)

Audio
ID : 1
Format : MPEG Audio
Format version : Version 1
Format profile : Layer 3
Codec ID : 55
Codec ID/Hint : MP3
Duration : 1h 36mn
Bit rate mode : Constant
Bit rate : 128 Kbps
Channel(s) : 2 channels
Sampling rate : 48.0 KHz
Compression mode : Lossy
Stream size : 88.7 MiB (12%)
Alignment : Aligned on interleaves
Interleave, duration : 42 ms (1.00 video frame)
Interleave, preload duration : 504 ms
Writing library : LAME3.97
Encoding settings : -m s -V 4 -q 2 -lowpass 17 -b 128



Скачать Подстава.The.Death.and.Life.of.Bobby.Z.(Джон.Херцфелд).[2007.боевик.триллер.драма.криминал.HDRip].[MVO].torrent без регистрации
Золото ЗОЛОТАЯ РАЗДАЧА! СКАЧАННОЕ НЕ ЗАСЧИТЫВАЕТСЯ! Золото
Дата: Зарегистрирован   [ Тип: внутренний ] Как тут cкачать?
MAGNET ссылка
MAGNET ссылка


Скачать .torrent

15 KB

Статус: проверено DHT
Скачан: торрент - 151 раз, раздача полностью - 64 раз
Размер: 744 MB
Оценка:  - (Голосов: 0)
Поблагодарили: 0
Поделиться ссылкой на эту раздачу с друзьями:
В контактеFacebookОдноклассникиTwitterLivejournalМой МирLiveinternet
 

 
Показать сообщения:    


Вы не можете начинать темы
Вы не можете отвечать на сообщения
Вы не можете редактировать свои сообщения
Вы не можете удалять свои сообщения
Вы не можете голосовать в опросах
Вы не можете прикреплять файлы к сообщениям
Вы можете скачивать файлы