Loading...
Error

Скачать Варвары / The Barbarians (Руджеро Деодато) [1987, Комедия, фэнтези, приключения, DVDRip] [VO] торрент без регистрации

 
Статистика раздачи
Размер:  852 MB   |    Скачан:  166 раз
Сидов:  1  [  0 KB/s  ]  
 
Автор Сообщение

Marsianka

[] 

Информация о фильме
Название: Варвары
Оригинальное название: The Barbarians
Год выхода: 1987
Жанр: Комедия, фэнтези, приключения
Режиссер: Руджеро Деодато / Ruggero Deodato
В ролях: Дэвид Пол /David Paul, Питер Пол /Peter Paul, Ричард Линч /Richard Lynch, Эва Ла Рю, Майкл Берриман /Michael Berryman

О фильме:
В далеком прошлом, из племени были похищены два новорожденных близнеца. По прошествии времени, братья подросли и весьма окрепли, возмужали и осознают что служат не правому делу. Близнецы решают отправиться в путь, на встречу сказочным приключениям, для того что-бы спасти королеву и возвратить похищенный магический рубин...



Страна: США, Италия
Студия: Cannon Films, Cannon Italia Srl
Продолжительность: 01:23:42
Перевод: Любительский (одноголосый закадровый)

Файл
Кодек: DivX
Качество: DVDRip
Видео: DivX 5 592x400 25.00fps 1088kbps
Звук:
Audio 1: MPEG Audio Layer 3 48000Hz stereo 192kbps [Русский]
Audio 2: MPEG Audio Layer 3 48000Hz stereo 128kbps [Итальянский]
Субтитры: Нет
. . . . . . . . . . . . .

Format : AVI
Format/Info : Audio Video Interleave
File size : 852 MiB
Duration : 1h 23mn
Overall bit rate : 1 423 Kbps
Writing application : VirtualDubModRus 1.5.10.2 (build 2542/release)
Writing library : VirtualDubMod build 2542/release

Video
ID : 0
Format : MPEG-4 Visual
Format settings, BVOP : No
Format settings, QPel : No
Format settings, GMC : No warppoints
Format settings, Matrix : Default (H.263)
Codec ID : DX50
Codec ID/Hint : DivX 5
Duration : 1h 23mn
Bit rate : 1 088 Kbps
Width : 592 pixels
Height : 400 pixels
Display aspect ratio : 3:2
Frame rate : 25.000 fps
Color space : YUV
Chroma subsampling : 4:2:0
Bit depth : 8 bits
Scan type : Progressive
Compression mode : Lossy
Bits/(Pixel*Frame) : 0.184
Stream size : 651 MiB (76%)
Writing library : DivX 5.2.1 (DrDivX 106) (UTC 2004-09-08)

Audio #1
ID : 1
Format : MPEG Audio
Format version : Version 1
Format profile : Layer 3
Codec ID : 55
Codec ID/Hint : MP3
Duration : 1h 23mn
Bit rate mode : Constant
Bit rate : 192 Kbps
Channel(s) : 2 channels
Sampling rate : 48.0 KHz
Compression mode : Lossy
Stream size : 115 MiB (13%)
Alignment : Aligned on interleaves
Interleave, duration : 40 ms (1.00 video frame)
Interleave, preload duration : 504 ms
Writing library : LAME3.97

Audio #2
ID : 2
Format : MPEG Audio
Format version : Version 1
Format profile : Layer 3
Mode : Joint stereo
Mode extension : MS Stereo
Codec ID : 55
Codec ID/Hint : MP3
Duration : 1h 23mn
Bit rate mode : Constant
Bit rate : 128 Kbps
Channel(s) : 2 channels
Sampling rate : 48.0 KHz
Compression mode : Lossy
Stream size : 76.6 MiB (9%)
Alignment : Aligned on interleaves
Interleave, duration : 40 ms (1.00 video frame)
Interleave, preload duration : 504 ms
Writing library : LAME3.95
Encoding settings : -m j -V 4 -q 2 -lowpass 17.5 -b 128
Релиз от: AlexNT



Скачать Варвары.The.Barbarians.(Руджеро.Деодато).[1987.Комедия.фэнтези.приключения.DVDRip].[VO].torrent без регистрации
Золото ЗОЛОТАЯ РАЗДАЧА! СКАЧАННОЕ НЕ ЗАСЧИТЫВАЕТСЯ! Золото
Дата: Зарегистрирован   [ Тип: внутренний ] Как тут cкачать?
MAGNET ссылка
MAGNET ссылка


Скачать .torrent

17 KB

Статус: проверено DHT
Скачан: торрент - 166 раз, раздача полностью - 37 раз
Размер: 852 MB
Оценка:  5 (Голосов: 1)
Поблагодарили: 6
Поделиться ссылкой на эту раздачу с друзьями:
В контактеFacebookОдноклассникиTwitterLivejournalМой МирLiveinternet
 

 
Показать сообщения:    


Вы не можете начинать темы
Вы не можете отвечать на сообщения
Вы не можете редактировать свои сообщения
Вы не можете удалять свои сообщения
Вы не можете голосовать в опросах
Вы не можете прикреплять файлы к сообщениям
Вы можете скачивать файлы