Loading...
Error

Скачать Однажды в сказке / Once Upon a Time (сезон 01) (Грег Биман, Марк Майлод, Дин Уайт) [2011, драма, фэнтези, BDRip] [720p] [Dub] торрент без регистрации

 
Статистика раздачи
Размер:  49,25 GB   |    Скачан:  348 раз
Сидов:  3  [  0 KB/s  ]   Личеров:  10  [  67 KB/s  ]  
 
Автор Сообщение

МихаНЕзатор

[] 

Год выпуска: 2011
Страна: США
Жанр: драма, фэнтези
Продолжительность: 22 х ~ 43 мин.
Перевод: Полное дублирование (Невафильм)
Режиссёр: Грег Биман, Марк Майлод, Дин Уайт

В ролях: Джиннифер Гудвин, Дженнифер Моррисон, Роберт Карлайл, Лана Паррилла, Джаред Гилмор, Джошуа Даллас, Рафаэль Сбардж, Меган Ори, Джеми Дорнан, Беверли Эллиотт

Описание: Сюжет фэнтези разворачивается в двух мирах современном и сказочном. Беззаботная жизнь 28-летней Эммы Свон меняется, когда ее 10-летний сын Генри, от которого она отказалась много лет назад, находит Эмму и объявляет, что она является дочерью Прекрасного Принца и Белоснежки. Само собой разумеется, у мальчишки нет никаких сомнений, что параллельно нашему существует альтернативный сказочный мир город Сторибрук, в котором в итоге оказывается Эмма. Постепенно героиня привязывается к необычному мальчику и странному городу, жители которого «забыли», кем они были в прошлом. А все из-за проклятия Злой Королевы (по совместительству приемной матери Генри), с помощью которого колдунья остановила время в сказочной стране. Однако стоит протянуть руку и сказка оживет. Эпическая битва за будущее двух миров начинается, но, чтобы одержать победу, Эмме придется принять свою судьбу
Ссылка на предыдущие и альтернативные раздачи

Сэмпл
Качество: BDRip (720p)
Формат: MKV
Видео кодек: H.264
Аудио кодек: AC3/DTS
Видео: AVC, 1280x720 (16:9), 23.976 fps, ~ 5639 Kbps (0.255 bit/pixel)
Аудио: Русский (AC-3, 48.0 KHz, 2 ch, 192 Kbps, CBR), Английский (DTS, 48.0 KHz, 6 ch, 1 510 Kbps, CBR)

Once.Upon.a.Time.S01E01.720p.BluRay.x264.[NevaFilm]
Format : Matroska
Format version : Version 2
File size : 2.23 GiB
Duration : 43mn 35s
Overall bit rate : 7 340 Kbps
Movie name : HamsterStudio
Encoded date : UTC 2012-08-29 06:21:10
Writing application : mkvmerge v5.6.0 ('Kenya Kane') built on May 27 2012 16:44:04
Writing library : libebml v1.2.3 + libmatroska v1.3.0

Video
ID : 1
Format : AVC
Format/Info : Advanced Video Codec
Format profile : High@L4.1
Format settings, CABAC : Yes
Format settings, ReFrames : 5 frames
Codec ID : V_MPEG4/ISO/AVC
Duration : 43mn 35s
Bit rate : 5 639 Kbps
Width : 1 280 pixels
Height : 720 pixels
Display aspect ratio : 16:9
Frame rate : 23.976 fps
Color space : YUV
Chroma subsampling : 4:2:0
Bit depth : 8 bits
Scan type : Progressive
Bits/(Pixel*Frame) : 0.255
Stream size : 1.67 GiB (75%)
Writing library : x264 core 125 r2208 d9d2288
Encoding settings : cabac=1 / ref=5 / deblock=1:-1:-1 / analyse=0x3:0x113 / me=umh / subme=7 / psy=1 / psy_rd=1.00:0.00 / mixed_ref=1 /
me_range=16 / chroma_me=1 / trellis=1 / 8x8dct=1 / cqm=0 / deadzone=21,11 / fast_pskip=1 / chroma_qp_offset=-2 / threads=12 / lookahead_threads=2 /
sliced_threads=0 / nr=0 / decimate=1 / interlaced=0 / bluray_compat=0 / constrained_intra=0 / bframes=3 / b_pyramid=2 / b_adapt=2 / b_bias=0 / direct=3 /
weightb=1 / open_gop=0 / weightp=2 / keyint=250 / keyint_min=23 / scenecut=40 / intra_refresh=0 / rc_lookahead=40 / rc=2pass / mbtree=1 / bitrate=5639 /
ratetol=1.0 / qcomp=0.60 / qpmin=0 / qpmax=69 / qpstep=4 / cplxblur=20.0 / qblur=0.5 / vbv_maxrate=50000 / vbv_bufsize=50000 / nal_hrd=none / ip_ratio=1.40 /
aq=1:1.00
Language : English
Default : Yes
Forced : No

Audio #1
ID : 2
Format : AC-3
Format/Info : Audio Coding 3
Mode extension : CM (complete main)
Format settings, Endianness : Big
Codec ID : A_AC3
Duration : 43mn 35s
Bit rate mode : Constant
Bit rate : 192 Kbps
Channel(s) : 2 channels
Channel positions : Front: L R
Sampling rate : 48.0 KHz
Bit depth : 16 bits
Compression mode : Lossy
Stream size : 59.9 MiB (3%)
Title : NevaFilm
Language : Russian
Default : Yes
Forced : No

Audio #2
ID : 3
Format : DTS
Format/Info : Digital Theater Systems
Codec ID : A_DTS
Duration : 43mn 35s
Bit rate mode : Constant
Bit rate : 1 510 Kbps
Channel(s) : 6 channels
Channel positions : Front: L C R, Side: L R, LFE
Sampling rate : 48.0 KHz
Bit depth : 24 bits
Compression mode : Lossy
Stream size : 471 MiB (21%)
Language : English
Default : No
Forced : No



Скачать Однажды.в.сказке.Once.Upon.a.Time.(сезон.01).(Грег.Биман.Марк.Майлод.Дин.Уайт).[2011.драма.фэнтези.BDRip].[720p].[Dub].torrent без регистрации
Золото ЗОЛОТАЯ РАЗДАЧА! СКАЧАННОЕ НЕ ЗАСЧИТЫВАЕТСЯ! Золото
Дата: Зарегистрирован   [ Тип: внешний ] Как тут cкачать?
MAGNET ссылка
MAGNET ссылка


Скачать .torrent

249 KB

Статус: проверено DHT
Скачан: торрент - 348 раз, раздача полностью - 113 раз
Размер: 49,25 GB
Оценка:  5 (Голосов: 1)
Поблагодарили: 6
Поделиться ссылкой на эту раздачу с друзьями:
В контактеFacebookОдноклассникиTwitterLivejournalМой МирLiveinternet
 

 
Показать сообщения:    


Вы не можете начинать темы
Вы не можете отвечать на сообщения
Вы не можете редактировать свои сообщения
Вы не можете удалять свои сообщения
Вы не можете голосовать в опросах
Вы не можете прикреплять файлы к сообщениям
Вы можете скачивать файлы