Loading...
Error

Скачать Культ / Cult (01x01-02 из 13) (Натан Хоуп) [2013, триллер, драма, криминал, WEB-DL] [1080p] [MVO (LostFilm)]+[DVO (NewStudio)] торрент без регистрации

 
Статистика раздачи
Размер:  3,62 GB   |    Скачан:  118 раз

Полного источника не было: 26 минут

 
Автор Сообщение

МихаНЕзатор

[] 

Название: Культ
Оригинальное название: Cult
Год выпуска: 2013
Жанр: триллер, драма, криминал
Режиссер: Натан Хоуп
В ролях: Мэтт Дэвис, Джессика Лукас, Алона Тал, Роберт Неппер, Мари Авгеропулос, Джеймс Пиццинато, Кристиан Майкл Купер, Джеффри Пирс, Аиша Хиндс, Кадим Хардисон

Описание: Мистический сериал рассказывает о ряде таинственных событий, в результате которых исчезли люди. Молодая помощница продюсера в тандеме с блоггером-журналистом начинают вести расследование среди группы ярых фанатиков, которые осуществляют убийства из телешоу.



Страна: США
Продолжительность: 02 x ~ 00:42:00
Перевод: Профессиональный (многоголосый, закадровый) - LostFilm
Перевод: Профессиональный (двухголосый, закадровый) - NewStudio
Субтитры: Русские

Качество: WEB-DL 1080р
Формат: MKV
Видео: MPEG-4 AVC, 5100 Кбит/с, 1920x1080
Аудио rus: АС3, 2 ch, 192-384 Кбит/с
Аудио eng: АС3, 2 ch, 384 Кбит/с

Релиз от: dantenecto

01. Ты следующий / You're Next
02. In the Blood
03. Being Billy
04. Get with the Program
05. The Kiss
06. The Good Fight
07. Suffer the Children
08. The Devil You Know
09. Off to See the Wizard
10. The Prophecy of St. Clare
11. Flip the
12. 1987
13.
Complete name : C:NewOutCult.S01.1080p.WEB-DL.LostFilm.NewStudioCult.S01E02.1080p.WEB-DL.LostFilm.NewStudio.mkv
Format : Matroska
File size : 1.76 GiB
Duration : 41mn 18s
Overall bit rate : 6 097 Kbps
Movie name : BaibaKo.tv presents - Титаник: кровь и сталь 1х04
Encoded date : UTC 2013-03-01 20:39:24
Writing application : mkvmerge v5.0.0 ('Die Wahre Liebe') built on Sep 25 2011 20:33:49
Writing library : libebml v1.2.2 + libmatroska v1.3.0

Video
ID : 1
Format : AVC
Format/Info : Advanced Video Codec
Format profile : High@L4.0
Format settings, CABAC : Yes
Format settings, ReFrames : 4 frames
Codec ID : V_MPEG4/ISO/AVC
Duration : 41mn 18s
Bit rate : 5 015 Kbps
Width : 1 920 pixels
Height : 1 080 pixels
Display aspect ratio : 16:9
Frame rate : 23.976 fps
Color space : YUV
Chroma subsampling : 4:2:0
Bit depth : 8 bits
Scan type : Progressive
Bits/(Pixel*Frame) : 0.101
Stream size : 1.45 GiB (82%)
Language : English
Color primaries : BT.709-5, BT.1361, IEC 61966-2-4, SMPTE RP177
Transfer characteristics : BT.709-5, BT.1361
Matrix coefficients : BT.709-5, BT.1361, IEC 61966-2-4 709, SMPTE RP177

Audio #1
ID : 2
Format : AC-3
Format/Info : Audio Coding 3
Mode extension : CM (complete main)
Codec ID : A_AC3
Duration : 41mn 18s
Bit rate mode : Constant
Bit rate : 384 Kbps
Channel(s) : 2 channels
Channel positions : Front: L R
Sampling rate : 48.0 KHz
Bit depth : 16 bits
Compression mode : Lossy
Delay relative to video : 4ms
Stream size : 113 MiB (6%)
Title : LostFilm
Language : Russian

Audio #2
ID : 3
Format : AC-3
Format/Info : Audio Coding 3
Mode extension : CM (complete main)
Codec ID : A_AC3
Duration : 41mn 18s
Bit rate mode : Constant
Bit rate : 192 Kbps
Channel(s) : 2 channels
Channel positions : Front: L R
Sampling rate : 48.0 KHz
Bit depth : 16 bits
Compression mode : Lossy
Stream size : 56.7 MiB (3%)
Title : NewStudio
Language : Russian

Audio #3
ID : 4
Format : AC-3
Format/Info : Audio Coding 3
Mode extension : CM (complete main)
Codec ID : A_AC3
Duration : 41mn 18s
Bit rate mode : Constant
Bit rate : 384 Kbps
Channel(s) : 6 channels
Channel positions : Front: L C R, Side: L R, LFE
Sampling rate : 48.0 KHz
Bit depth : 16 bits
Compression mode : Lossy
Stream size : 113 MiB (6%)
Language : English

Text
ID : 5
Format : UTF-8
Codec ID : S_TEXT/UTF8
Codec ID/Info : UTF-8 Plain Text




Скачать Культ.Cult.(01x01-02.из.13).(Натан.Хоуп).[2013.триллер.драма.криминал.WEB-DL].[1080p].[MVO.(LostFilm)]+[DVO.(NewStudio)].torrent без регистрации
Золото ЗОЛОТАЯ РАЗДАЧА! СКАЧАННОЕ НЕ ЗАСЧИТЫВАЕТСЯ! Золото
Дата: Зарегистрирован   [ Тип: внутренний ] Как тут cкачать?
MAGNET ссылка
MAGNET ссылка


Скачать .torrent

19 KB

Статус: проверено DHT
Скачан: торрент - 118 раз, раздача полностью - 1 раз
Размер: 3,62 GB
Оценка:  - (Голосов: 0)
Поблагодарили: 1
Поделиться ссылкой на эту раздачу с друзьями:
В контактеFacebookОдноклассникиTwitterLivejournalМой МирLiveinternet
 

 
Показать сообщения:    


Вы не можете начинать темы
Вы не можете отвечать на сообщения
Вы не можете редактировать свои сообщения
Вы не можете удалять свои сообщения
Вы не можете голосовать в опросах
Вы не можете прикреплять файлы к сообщениям
Вы можете скачивать файлы