Loading...
Error

Скачать В плену / Last Day of Summer (Влад Юдин) [2009, драма, комедия, BDRip-AVC] [MVO] [лицензия] торрент без регистрации

 
Статистика раздачи
Размер:  1,46 GB   |    Скачан:  116 раз
Сидов:  1  [  0 KB/s  ]  
 
Автор Сообщение

МихаНЕзатор

[] 

В плену / Last Day of Summer

Страна: США
Жанр: драма, комедия
Год выпуска: 2009
Продолжительность: 01:25:13
Перевод: Профессиональный многоголосый [лицензия]
Cубтитры: нет
Режиссер: Влад Юдин / Vlad Yudin

В ролях: DJ Куаллс, Никки Рид, Уильям Сэдлер, Крис Башинелли, Э.Дж. Кэрролл, Джейсон Круз, Кристофер Джеймс Каллен, Хизер Дилли, Лоуренс Вини

Описание: Эта непредсказуемая история о служащем службы быстрого питания, Джо. Парню все уже изрядно надоело, его постоянно изводит шеф и терпеть это уже просто невозможно. В конце концов, в последний день лета, Джо решает отомстить своему боссу, но его планы неожиданно рушатся, когда он ловит на себе взгляд красивой девушки. Тогда он решает похитить ее…



Тип релиза: BDRip-AVC (BDRemux)
Контейнер: MKV
Видео:1268x540 (2.35:1), 23.976 fps, AVC, ~1996 Kbps
Аудио: 48 kHz, AC3 Dolby Digital, 3/2 (L,C,R,l,r) + LFE ch, ~448.00 kbps avg
General
Unique ID : 240371672194524653501223307507685417019 (0xB4D5E66EAB767910B0A862419018603B)
Complete name : E:\Downloads\V plenu.chopper887.mkv
Format : Matroska
File size : 1.46 GiB
Duration : 1h 25mn
Overall bit rate : 2 446 Kbps
Movie name : V plenu.chopper887
Encoded date : UTC 2012-01-26 15:44:38
Writing application : mkvmerge v4.8.0 ('I Got The...') сборка от May 24 2011 03:12:58
Writing library : libebml v1.2.0 + libmatroska v1.1.0
Video
ID : 1
Format : AVC
Format/Info : Advanced Video Codec
Format profile : High@L4.0
Format settings, CABAC : Yes
Format settings, ReFrames : 10 frames
Format settings, GOP : M=1, N=15
Codec ID : V_MPEG4/ISO/AVC
Duration : 1h 25mn
Bit rate : 1 996 Kbps
Width : 1 268 pixels
Height : 540 pixels
Display aspect ratio : 2.35:1
Frame rate : 23.976 fps
Color space : YUV
Chroma subsampling : 4:2:0
Bit depth : 8 bits
Scan type : Progressive
Bits/(Pixel*Frame) : 0.122
Stream size : 1.16 GiB (80%)
Title : V plenu.chopper887
Writing library : x264 core 116 r2074 2641b9e
Encoding settings : cabac=1 / ref=10 / deblock=1:-2:-1 / analyse=0x3:0x133 / me=umh / subme=11 / psy=1 / psy_rd=1.00:0.10 / mixed_ref=1 / me_range=32 / chroma_me=1 / trellis=2 / 8x8dct=1 / cqm=0 / deadzone=21,11 / fast_pskip=0 / chroma_qp_offset=-3 / threads=12 / sliced_threads=0 / nr=0 / decimate=1 / interlaced=0 / bluray_compat=0 / constrained_intra=0 / bframes=8 / b_pyramid=2 / b_adapt=2 / b_bias=0 / direct=3 / weightb=1 / open_gop=0 / weightp=2 / keyint=250 / keyint_min=23 / scenecut=40 / intra_refresh=0 / rc_lookahead=80 / rc=2pass / mbtree=1 / bitrate=1996 / ratetol=1.0 / qcomp=0.60 / qpmin=0 / qpmax=69 / qpstep=4 / cplxblur=20.0 / qblur=0.5 / ip_ratio=1.40 / aq=1:1.00
Language : English
Audio
ID : 2
Format : AC-3
Format/Info : Audio Coding 3
Mode extension : CM (complete main)
Codec ID : A_AC3
Duration : 1h 25mn
Bit rate mode : Constant
Bit rate : 448 Kbps
Channel(s) : 6 channels
Channel positions : Front: L C R, Side: L R, LFE
Sampling rate : 48.0 KHz
Bit depth : 16 bits
Compression mode : Lossy
Stream size : 273 MiB (18%)
Title : MVO



Скачать В.плену.Last.Day.of.Summer.(Влад.Юдин).[2009.драма.комедия.BDRip-AVC].[MVO].[лицензия].torrent без регистрации
Золото ЗОЛОТАЯ РАЗДАЧА! СКАЧАННОЕ НЕ ЗАСЧИТЫВАЕТСЯ! Золото
Дата: Зарегистрирован   [ Тип: внутренний ] Как тут cкачать?
MAGNET ссылка
MAGNET ссылка


Скачать .torrent

15 KB

Статус: проверено DHT
Скачан: торрент - 116 раз, раздача полностью - 25 раз
Размер: 1,46 GB
Оценка:  - (Голосов: 0)
Поблагодарили: 3
Поделиться ссылкой на эту раздачу с друзьями:
В контактеFacebookОдноклассникиTwitterLivejournalМой МирLiveinternet
 

 
Показать сообщения:    


Вы не можете начинать темы
Вы не можете отвечать на сообщения
Вы не можете редактировать свои сообщения
Вы не можете удалять свои сообщения
Вы не можете голосовать в опросах
Вы не можете прикреплять файлы к сообщениям
Вы можете скачивать файлы