Loading...
Error

Скачать Стремительная и сексуальная / Анна из Бруклина / Fast and sexy / Anna di Brooklyn (Витторио Де Сика, Карло Ластрикати) [1958, Комедия, TVrip] [DVO] торрент без регистрации

 
Статистика раздачи
Размер:  1,28 GB   |    Скачан:  183 раза
Сидов:  1  [  0 KB/s  ]  
 
Автор Сообщение

Marsianka

[] 

Информация о фильме
Название: Стремительная и сексуальная / Анна из Бруклина
Оригинальное название: Fast and sexy / Anna di Brooklyn
Год выхода: 1958
Жанр: Комедия
Режиссер: Витторио Де Сика / Vittorio De Sica, Карло Ластрикати / Carlo Lastricati
В ролях: Джина Лоллобриджида / Gina Lollobrigida, Витторио Де Сика / Vittorio De Sica, Амедео Наццари / Amedeo Nazzari, Пеппино Де Филиппо/ Peppino De Filippo, Дэйл Робертсон / Dale Robertson, Теренс Хилл /Terence Hill

О фильме:
Анна молодая, богатая вдова возвращается домой в Италию из Америки. Приезд красавицы на роскошной машине является большим событием для маленькой деревушке. К тому же, известие о том что Анна вновь собирается выйти замуж создаёт переполох среди холостяков.



Страна: Италия, Франция
Студия:
1.Cinematografica Latina
2.France Cin™ma Productions
3.Les Films Marceau
4.Produzione Circeo
Продолжительность: 01:38:59
Перевод: Профессиональный (двухголосый закадровый)

Файл
Кодек: XviD
Качество: TVrip
Видео: XviD 560x432 (1.30:1) 25.00fps 1646 kbps 0.27 bit/pixel
Звук: АС3, 48000Hz 192 kb/s tot 2/0 (L,R) ch
Субтитры: Нет
. . . . .
Format : AVI
Format/Info : Audio Video Interleave
File size : 1.28 GiB
Duration : 1h 38mn
Overall bit rate : 1 849 Kbps
Writing application : VirtualDubMod 1.5.10.2 (build 2540/release)
Writing library : VirtualDubMod build 2540/release

Video
ID : 0
Format : MPEG-4 Visual
Format profile : Advanced Simple@L5
Format settings, BVOP : 1
Format settings, QPel : No
Format settings, GMC : No warppoints
Format settings, Matrix : Default (MPEG)
Codec ID : DX50
Codec ID/Hint : DivX 5
Duration : 1h 38mn
Bit rate : 1 647 Kbps
Width : 560 pixels
Height : 432 pixels
Display aspect ratio : 1.296
Frame rate : 25.000 fps
Color space : YUV
Chroma subsampling : 4:2:0
Bit depth : 8 bits
Scan type : Progressive
Compression mode : Lossy
Bits/(Pixel*Frame) : 0.272
Stream size : 1.14 GiB (89%)
Writing library : XviD 63

Audio
ID : 1
Format : AC-3
Format/Info : Audio Coding 3
Mode extension : CM (complete main)
Codec ID : 2000
Duration : 1h 38mn
Bit rate mode : Constant
Bit rate : 192 Kbps
Channel(s) : 2 channels
Channel positions : Front: L R
Sampling rate : 48.0 KHz
Bit depth : 16 bits
Compression mode : Lossy
Stream size : 136 MiB (10%)
Alignment : Aligned on interleaves
Interleave, duration : 40 ms (1.00 video frame)
Interleave, preload duration : 512 ms
Релиз от: Lirik'



Скачать Стремительная.и.сексуальная.Анна.из.Бруклина.Fast.and.sexy.Anna.di.Brooklyn.(Витторио.Де.Сика.Карло.Ластрикати).[1958.Комедия.TVrip].[DVO].torrent без регистрации
Золото ЗОЛОТАЯ РАЗДАЧА! СКАЧАННОЕ НЕ ЗАСЧИТЫВАЕТСЯ! Золото
Дата: Зарегистрирован   [ Тип: внутренний ] Как тут cкачать?
MAGNET ссылка
MAGNET ссылка


Скачать .torrent

13 KB

Статус: проверено DHT
Скачан: торрент - 183 раз, раздача полностью - 33 раз
Размер: 1,28 GB
Оценка:  - (Голосов: 0)
Поблагодарили: 3
Поделиться ссылкой на эту раздачу с друзьями:
В контактеFacebookОдноклассникиTwitterLivejournalМой МирLiveinternet
 

 
Показать сообщения:    


Вы не можете начинать темы
Вы не можете отвечать на сообщения
Вы не можете редактировать свои сообщения
Вы не можете удалять свои сообщения
Вы не можете голосовать в опросах
Вы не можете прикреплять файлы к сообщениям
Вы можете скачивать файлы