Loading...
Error

Скачать [Digital Tutors] Using the Blend Shapes Plugin for ZBrush 4 [2011, ENG] торрент без регистрации

 
Статистика раздачи
Размер:  391 MB   |    Скачан:  113 раз
Сидов:  1  [  0 KB/s  ]  
 
Автор Сообщение

Moln!a

[] 

Using the Blend Shapes Plugin for ZBrush 4
Год выпуска: 2011
Производитель: Digital Tutors
Сайт производителя: http://www.digitaltutors.com/11/training.php?pid=58
Продолжительность: 0:27:58
Тип раздаваемого материала: Видеоурок
Язык: Английский
Описание: In this course we will learn to use the Blend Shapes plugin for ZBrush 4.
"Blend shapes are a great way to quickly add expression to our characters or otherwise deform models based on our specific design. ZBrush is particularly adept at allowing us to create those target shapes. In this series of lessons we’ll learn how to use the Blend Shapes plug-in to quickly create and export blend shapes for use in Maya. We will begin by talking about the installation of the plug-in and then take a look at its simple interface. We will proceed to create an expression for our old man character and export it quickly to Maya. While there, we will look at how to access our new blend shapes and talk about the other data that will come through with the transfer. We will also talk about exporting multiple blend shapes to create expression libraries and we'll finish up by looking at how we can export shapes for multiple subtools. Once completed, you'll be able to start transferring your own blend shapes to Maya much more quickly and easily."
1. Introduction and project overview
2. Installing the plug-in
3. Using the plug-in interface
4. Exporting single blend shapes
5. Exporting multiple blend shapes
6. Exporting blend shapes with multiple subtools
Файлы примеров: присутствуют
Формат видео: flv
Видео: Flash Video 4, 1280x720, (16:9), 743 Kbps, 15 fps
Аудио: MPEG Audio Layer 3, 44100Hz, mono, 96kbps
General
Format : Flash Video
Overall bit rate : 743 Kbps
Encoded date : Mon Jun 20 17:46:38 2011
Writing application : Digital-Tutors - All rights reserved / Sorenson Squeeze
Video
Format : VP6
Bit rate : 1 000 Kbps
Width : 1 280 pixels
Height : 720 pixels
Display aspect ratio : 16:9
Frame rate mode : Constant
Frame rate : 15.000 fps
Bits/(Pixel*Frame) : 0.072
Stream size : 19.0 MiB
Audio
Format : MPEG Audio
Format version : Version 1
Format profile : Layer 3
Bit rate mode : Constant
Bit rate : 96.0 Kbps
Channel(s) : 1 channel
Sampling rate : 44.1 KHz
Bit depth : 16 bits
Stream size : 1.82 MiB (13%)



Скачать Using.the.Blend.Shapes.Plugin.for.ZBrush.4.[2011.ENG].torrent без регистрации
Золото ЗОЛОТАЯ РАЗДАЧА! СКАЧАННОЕ НЕ ЗАСЧИТЫВАЕТСЯ! Золото
Дата: Зарегистрирован   [ Тип: внутренний ] Как тут cкачать?
MAGNET ссылка
MAGNET ссылка


Скачать .torrent

16 KB

Статус: проверено DHT
Скачан: торрент - 113 раз, раздача полностью - 5 раз
Размер: 391 MB
Оценка:  - (Голосов: 0)
Поблагодарили: 0
Поделиться ссылкой на эту раздачу с друзьями:
В контактеFacebookОдноклассникиTwitterLivejournalМой МирLiveinternet
 

 
Показать сообщения:    


Вы не можете начинать темы
Вы не можете отвечать на сообщения
Вы не можете редактировать свои сообщения
Вы не можете удалять свои сообщения
Вы не можете голосовать в опросах
Вы не можете прикреплять файлы к сообщениям
Вы можете скачивать файлы