Loading...
Error

Скачать Игра престолов / Game of Thrones (сезоны 01-06х01-60 из 60) (Брайан Кирк и др.) [2011-2016, драма, фэнтези, приключения, BDRip, HDTVRip] [720p] [MVO (LostFilm)] торрент без регистрации

 
Статистика раздачи
Размер:  76,35 GB   |    Скачан:  1074 раза
Сидов:  1  [  0 KB/s  ]  
 
Автор Сообщение

МихаНЕзатор

[] 

Название: Игра престолов
Оригинальное название: Game of Thrones
Год выпуска: 2011-2016
Жанр: драма, фэнтези, приключения
Режиссер: Брайан Кирк, Даниэль Минахан, Алан Тейлор, Дэвид Петрарка, Дэвид Наттер

В ролях: Шон Бин, Николай Костер-Валдау, Лина Хиди, Иэн Глен, Питер Динклэйдж, Эмилия Кларк, Мишель Фэйрли, Эйден Гиллен, Кит Харингтон, Марк Эдди, Элфи Оуэн-Аллен, Джек Глисон, Софи Тернер, Мэйси Уильямс, Рон Донаки, Исаак Хемпстид-Райт, Джейсон Момоа, Ричард Мэдден, Джером Флинн, Конлет Хилл, Дональд Самптер, Рори МакКанн, Амрита Ачария, Чарльз Дэнс, Джон Брэдли, Кристиан Нэйрн, Сибель Кекилли, Джеймс Космо, Стивен Диллэйн, Гетин Энтони, Гвендолин Кристи, Натали Дормер, Уна Чаплин, Нонсо Анози, Роуз Лесли, Оуэн Тил

Описание: «Игра престолов» новый сериал HBO, основанный на бестселлерах Джорджа Р.Р. Мартина. В мире, где лето и зимы длятся десятилетиями, на кону корона Вестероса. Предательство, похоть, интриги и сверхъестественные силы сотрясают все четыре стороны Королевства — от плетущего интриги юга, диких восточных земель, до замерзшего севера и древней Стены, что защищает королевство от тьмы за нею. Короли и королевы, рыцари и мятежники, лжецы и благородные люди борются за власть в кровавом сражении за Железный Трон.



Выпущено: США, Bighead Littlehead, Embassy Films, Home Box Office (HBO)
Продолжительность: 58 x ~ 00:57:00
Перевод: Профессиональный многоголосый - LostFilm

Качество: BDRip, HDTVRip 720p
Видео: MPEG-4 AVC, ~ 3100 Кбит/с, 1280x720
Аудио rus: АС3, 6 ch, 384 Кбит/с

АНОНСЫ ПОПУЛЯРНЫХ РАЗДАЧ


Торрент обновлён, добавлена 10-я серия 6-го сезона!

1 сезон:

01. Север помнит / The North Remembers
02. Ночные земли / The Night Lands
03. Что мертво, умереть не может / What Is Dead May Never Die
04. Костяной Сад / Garden of Bones
05. Призрак Харренхола / The Ghost of Harrenhal
06. Старые Боги и Новые / The Old Gods and the New
07. Человек без Чести / A Man Without Honor
08. Принц Винтерфелла / The Prince of Winterfell
09. Черноводная / Blackwater
10. Валар Моргулис / Valar Morghulis

2 сезон:

01. Зима близко / Winter Is Coming
02. Королевский тракт / The Kingsroad
03. Лорд Сноу / Lord Snow
04. Калеки, бастарды и сломанные вещи / Cripples, Bastards, and Broken Things
05. Волк и лев / The Wolf and the Lion
06. Золотая корона / A Golden Crown
07. Побеждай или умри / You Win or You Die
08. Остриё / The Pointy End
09. Бейелор / Baelor
10. Пламя и кровь / Fire and Blood

3 сезон:

01. Валар Дохаэрис / Valar Dohaeris
02. Черные крылья, черные вести / Dark Wings, Dark Words
03. Стезя страданий / Walk of Punishment
04. Теперь его дозор окончен / And Now His Watch is Ended
05. Поцелованная огнем / Kissed by Fire
06. Подъем / The Climb
07. Медведь и прекрасная дева / The Bear and the Maiden Fair
08. Младшие Сыны / Second Sons
09. Рейны из Кастамере / The Rains of Castamere
10. Миса / Mhysa

4 сезон:

01. Два меча / Two Swords
02. Лев и Роза / The Lion and the Rose
03. Разрушительница оков / Breaker of Chains
04. Верный клятве / Oathkeeper
05. Первый этого имени / First of His Name
06. Законы богов и людей / The Laws of Gods and Men
07. Пересмешник / Mockingbird
08. Гора и Змей / The Mountain and the Viper 1 июня 2014
09. Дозорные на Стене / The Watchers of the Wall
10. Дети / The Children

5 сезон:

01. Грядущие войны / The Wars to Come
02. Чёрно-белый дом / The House of Black and White
03. Его Воробейшество / High Sparrow
04. Сыны Гарпии / The Sons Of The Harpy
05. Убей мальчика / Kill the Boy
06. Непреклонные, несгибаемые, несдающиеся / Unbowed, Unbent, Unbroken
07. Дар / The Gift
08. Суровый дом / Hardhome
09. Танец драконов / The Dance of Dragons
10. Милость Матери / Mother's Mercy

6 сезон:

01. Красная женщина / The Red Woman
02. Дом / Home
03. Клятвопреступник / Oathbreaker
04. Книга Неведомого / Book of the Stranger
05. Дверь / The Door
06. Кровь моей крови / Blood of My Blood
07. Сломленный человек / The Broken Man
08. Никто / No One
09. Битва бастардов / Battle of the Bastards
10. Ветра зимы / The Winds of Winter

Полное имя : D:Game.of.Thrones.(720p).(6 ch)5Game.of.Thrones.s05e01.(720p).tahiy.mkv
Формат : Matroska
Версия формата : Version 2
Размер файла : 1,33 Гбайт
Продолжительность : 52 м.
Общий поток : 3600 Кбит/сек
Название фильма : Game.of.Thrones.tahiy
Дата кодирования : UTC 2015-04-25 13:05:05
Программа кодирования : mkvmerge v4.0.0 ('The Stars were mine') сборка от Jun 5 2010 17:44:09
Библиотека кодирования : libebml v1.0.0 + libmatroska v1.0.0

Видео
Идентификатор : 1
Формат : AVC
Формат/Информация : Advanced Video Codec
Профиль формата : High@L4.1
Параметр CABAC формата : Да
Параметр ReFrames формата : 8 кадров
Идентификатор кодека : V_MPEG4/ISO/AVC
Продолжительность : 52 м.
Битрейт : 3250 Кбит/сек
Ширина : 1280 пикселей
Высота : 720 пикселей
Соотношение сторон : 16:9
Режим частоты кадров : Постоянный
Частота кадров : 23,976 кадра/сек
Цветовое пространство : YUV
Субдискретизация насыщенности : 4:2:0
Битовая глубина : 8 бит
Тип развёртки : Прогрессивная
Бит/(Пиксели*Кадры) : 0.147
Размер потока : 1,16 Гбайт (87%)
Заголовок : Game.of.Thrones.tahiy
Библиотека кодирования : x264 core 130 r2273 b3065e6
Настройки программы : cabac=1 / ref=8 / deblock=1:-2:-2 / analyse=0x3:0x113 / me=umh / subme=10 / psy=1 / psy_rd=1.00:0.20 / mixed_ref=1 / me_range=32 / chroma_me=1 / trellis=2 / 8x8dct=1 / cqm=0 / deadzone=21,11 / fast_pskip=0 / chroma_qp_offset=-3 / threads=6 / lookahead_threads=1 / sliced_threads=0 / nr=0 / decimate=0 / interlaced=0 / bluray_compat=0 / constrained_intra=0 / bframes=10 / b_pyramid=2 / b_adapt=2 / b_bias=0 / direct=3 / weightb=1 / open_gop=0 / weightp=2 / keyint=240 / keyint_min=23 / scenecut=40 / intra_refresh=0 / rc_lookahead=40 / rc=2pass / mbtree=0 / bitrate=3250 / ratetol=1.0 / qcomp=0.60 / qpmin=0 / qpmax=69 / qpstep=4 / cplxblur=20.0 / qblur=0.5 / vbv_maxrate=50000 / vbv_bufsize=62500 / nal_hrd=none / ip_ratio=1.40 / pb_ratio=1.30 / aq=1:1.00
Язык : Russian
Default : Да
Forced : Нет

Аудио
Идентификатор : 2
Формат : AC-3
Формат/Информация : Audio Coding 3
Расширение режима : CM (complete main)
Параметр Endianness формата : Big
Идентификатор кодека : A_AC3
Продолжительность : 52 м.
Вид битрейта : Постоянный
Битрейт : 384 Кбит/сек
Каналы : 6 каналов
Расположение каналов : Front: L C R, Side: L R, LFE
Частота : 48,0 КГц
Битовая глубина : 16 бит
Метод сжатия : С потерями
Размер потока : 145 Мбайт (11%)
Заголовок : LostFilm
Язык : Russian
Default : Да
Forced : Нет
Раздача ведётся путём добавления новых серий; при каждом добавлении создаётся новый торрент. Чтобы начать докачку новой серии, пользователям необходимо сделать следующее:
(1) остановить скачивание,
(2) удалить старый торрент у себя из клиента (старые серии удалять не надо),
(3) скачать новый торрент и запустить его у себя в клиенте вместо старого, при этом указать клиенту путь в старую папку куда и должно происходить скачивание новых серий.

Ваш клиент при этом должен произвести хеширование (проверку) старой папки (если не производит сам - помогите ему сделать это), и будет докачивать только те серии которых у вас ещё нет. Старые серии при этом не удаляются, а продолжают раздаваться!

Eсли вы уже удалили старые серии, то предотвратить повторную закачку старых серий можно, отжав галочку в соответствующих местах при запуске нового торрента. По возможности, желательно не удалять старые серии как можно дольше чтобы релизёр не столько продолжал раздавать старые серии, а смог сконцентрироваться на новых.

Ссылка на ютуб
Ссылка на DepositFiles
Ссылка на клиент 2.2.1 При установке не обновляйте!!!

1) Выделяем торрент одним нажатием левой кнопкой мыши.



2) Заходим на вкладку "Files (Файлы)"



3) И меняем нажатием правой кнопкой мыши приоритет на "Normal (нормальный)"




Скачать Игра.престолов.Game.of.Thrones.(сезоны.01-06х01-60.из.60).(Брайан.Кирк.и.др.).[2011-2016.драма.фэнтези.приключения.BDRip.HDTVRip].[720p].[MVO.(LostFilm)].torrent без регистрации
Золото ЗОЛОТАЯ РАЗДАЧА! СКАЧАННОЕ НЕ ЗАСЧИТЫВАЕТСЯ! Золото
Дата: Зарегистрирован   [ Тип: внутренний ] Как тут cкачать?
MAGNET ссылка
MAGNET ссылка


Скачать .torrent

387 KB

Статус: проверено DHT
Скачан: торрент - 1074 раз, раздача полностью - 28 раз
Размер: 76,35 GB
Оценка:  5 (Голосов: 7)
Поблагодарили: 10
Поделиться ссылкой на эту раздачу с друзьями:
В контактеFacebookОдноклассникиTwitterLivejournalМой МирLiveinternet
 

 

ROLF1968

[] 

Будьте добры добавьте по возможности 9-ю и 10-ю серию 6-го сезона пожалуйста
 

ROLF1968

[] 

Подскажите, эта раздача будет обновляться?
 
Показать сообщения:    


Вы не можете начинать темы
Вы не можете отвечать на сообщения
Вы не можете редактировать свои сообщения
Вы не можете удалять свои сообщения
Вы не можете голосовать в опросах
Вы не можете прикреплять файлы к сообщениям
Вы можете скачивать файлы