Loading...
Error

Скачать Джон Уик 2 / John Wick: Chapter Two (Чад Стахелски) [2017, Боевик, криминал, BDRip] [720p] [DUB] [iTunes] [R.G. GoldenShara] торрент без регистрации

Статистика раздачи
Размер:  2,45 GB   |    Скачан:  316 раз
Сидов:  1  [  0 KB/s  ]  
 
 
 
Автор Сообщение

LORDKILL

[] 


Джон Уик 2 / John Wick: Chapter Two


Год выпуска: 2017
Выпущено: США
Жанр: Боевик, криминал
Продолжительность: 02:02:22
Перевод: Профессиональный (полное дублирование)
Субтитры: Русские, английские

Режиссер: Чад Стахелски

В ролях: Киану Ривз, Риккардо Скамарчио, Иэн МакШейн, Руби Роуз, Коммон, Клаудия Джерини, Лэнс Реддик, Лоуренс Фишборн, Тобиаш Сигал, Джон Легуизамо

Описание: Когда-то Джон Уик был лучшим киллером в мире, но он устал от бесконечных убийств и теперь его душа требует покоя. Джон отходит от дел, но, не успев насладиться жизнью нормального человека, ему вновь приходится взять в руки оружие. Дело в том, что его бывший напарник собирается возглавить тайную гильдию наемных убийц и, данная Джоном кровная клятва, вынуждает героя прийти на помощь коллеге. Уик отправляется в Рим, где ему предстоит вступить в противостояние с одним из самых смертоносных убийц в мире







Качество: BDRip 720p
Формат: MKV
Видео кодек: H.264
Аудио кодек: AC3
Видео: 1280x536 (2.40:1), 2486 kbps, 23.976 fps
Аудио: Русский (AC-3, 6ch, 384 kbps)

x264 [info]: frame I:1362 Avg QP:16.08 size: 93298
x264 [info]: frame P:41133 Avg QP:17.74 size: 27821
x264 [info]: frame B:133546 Avg QP:21.72 size: 7567
x264 [info]: consecutive B-frames: 2.7% 3.6% 10.0% 21.4% 25.3% 29.8% 4.8% 1.1% 1.4%
x264 [total]: encoded 176041 frames, 8.07 fps, 2486.35 kb/s
General
Unique ID : 231996750293906107237654097723385770602 (0xAE88F2E71F790E9AB5005DC0C940F26A)
Complete name : F:\ФИЛЬМЫ\ДЖОН УИК\Джон.Уик-2.2017.x264.BDRip.720p.DUB.mkv
Format : Matroska
Format version : Version 4 / Version 2
File size : 2.45 GiB
Duration : 2 h 2 min
Overall bit rate : 2 872 kb/s
Movie name : Джон Уик 2 / John Wick Chapter 2 (2017) - #LORDKILL#
Encoded date : UTC 2017-06-07 19:01:58
Writing application : mkvmerge v9.9.0 ('Pick Up') 64bit
Writing library : libebml v1.3.4 + libmatroska v1.4.5

Video
ID : 1
Format : AVC
Format/Info : Advanced Video Codec
Format profile : High@L4.1
Format settings, CABAC : Yes
Format settings, ReFrames : 10 frames
Codec ID : V_MPEG4/ISO/AVC
Duration : 2 h 2 min
Bit rate : 2 486 kb/s
Width : 1 280 pixels
Height : 536 pixels
Display aspect ratio : 2.40:1
Frame rate mode : Constant
Frame rate : 23.976 (24000/1001) FPS
Color space : YUV
Chroma subsampling : 4:2:0
Bit depth : 8 bits
Scan type : Progressive
Bits/(Pixel*Frame) : 0.151
Stream size : 2.13 GiB (87%)
Writing library : x264 core 146 r2538 121396c
Encoding settings : cabac=1 / ref=10 / deblock=1:-3:-3 / analyse=0x3:0x113 / me=umh / subme=11 / psy=1 / psy_rd=1.00:0.10 / mixed_ref=1 / me_range=32 / chroma_me=1 / trellis=2 / 8x8dct=1 / cqm=0 / deadzone=21,11 / fast_pskip=0 / chroma_qp_offset=-3 / threads=12 / lookahead_threads=2 / sliced_threads=0 / nr=0 / decimate=1 / interlaced=0 / bluray_compat=0 / constrained_intra=0 / bframes=8 / b_pyramid=2 / b_adapt=2 / b_bias=0 / direct=1 / weightb=1 / open_gop=0 / weightp=2 / keyint=240 / keyint_min=23 / scenecut=40 / intra_refresh=0 / rc=crf / mbtree=0 / crf=19.0 / qcomp=0.60 / qpmin=0 / qpmax=69 / qpstep=4 / ip_ratio=1.40 / pb_ratio=1.30 / aq=1:1.00
Language : English
Default : Yes
Forced : No

Audio
ID : 2
Format : AC-3
Format/Info : Audio Coding 3
Mode extension : CM (complete main)
Format settings, Endianness : Big
Codec ID : A_AC3
Duration : 2 h 2 min
Bit rate mode : Constant
Bit rate : 384 kb/s
Channel(s) : 6 channels
Channel positions : Front: L C R, Side: L R, LFE
Sampling rate : 48.0 kHz
Frame rate : 31.250 FPS (1536 spf)
Bit depth : 16 bits
Compression mode : Lossy
Stream size : 336 MiB (13%)
Title : Дубляж - iTunes
Language : Russian
Default : Yes
Forced : No

Text #1
ID : 3
Format : UTF-8
Codec ID : S_TEXT/UTF8
Codec ID/Info : UTF-8 Plain Text
Duration : 1 h 53 min
Bit rate : 37 b/s
Count of elements : 501
Stream size : 31.0 KiB (0%)
Language : Russian
Default : No
Forced : No

Text #2
ID : 4
Format : UTF-8
Codec ID : S_TEXT/UTF8
Codec ID/Info : UTF-8 Plain Text
Duration : 1 h 49 min
Bit rate : 21 b/s
Count of elements : 658
Stream size : 17.2 KiB (0%)
Language : English
Default : No
Forced : No

Menu
00:00:00.000 : en:Chapter 1
00:06:31.683 : en:Chapter 2
00:16:57.934 : en:Chapter 3
00:26:35.594 : en:Chapter 4
00:34:38.034 : en:Chapter 5
00:42:07.817 : en:Chapter 6
00:48:07.051 : en:Chapter 7
00:56:41.648 : en:Chapter 8
01:01:42.782 : en:Chapter 9
01:10:27.682 : en:Chapter 10
01:17:15.923 : en:Chapter 11
01:24:22.641 : en:Chapter 12
01:32:11.234 : en:Chapter 13
01:40:01.329 : en:Chapter 14
01:46:34.763 : en:Chapter 15
01:54:01.042 : en:Chapter 16





Скачать Джон.Уик.2.John.Wick.Chapter.Two.(Чад.Стахелски).[2017.Боевик.криминал.BDRip].[720p].[DUB].[iTunes].[R.G.GoldenShara].torrent без регистрации
Золото ЗОЛОТАЯ РАЗДАЧА! СКАЧАННОЕ НЕ ЗАСЧИТЫВАЕТСЯ! Золото
Дата: Зарегистрирован   [ Тип: внутренний ] Как тут cкачать?
MAGNET ссылка
MAGNET ссылка


Скачать .torrent

13 KB

Статус: проверено
Скачан: торрент - 316 раз, раздача полностью - 192 раз
Размер: 2,45 GB
Оценка:  5 (Голосов: 3)
Поблагодарили: 15
Поделиться ссылкой на эту раздачу с друзьями:
В контактеFacebookОдноклассникиTwitterLivejournalМой МирLiveinternet
 

 

KJLOYH

[] 

1080 не планируется?
 

asd-anane

[] 

В исполнении LORDKILL и 720 очень достойно смотрится.
 
Показать сообщения:    


Вы не можете начинать темы
Вы не можете отвечать на сообщения
Вы не можете редактировать свои сообщения
Вы не можете удалять свои сообщения
Вы не можете голосовать в опросах
Вы не можете прикреплять файлы к сообщениям
Вы можете скачивать файлы