Loading...
Error

Скачать [Digital Tutors] Getting Started with Stereoscopy in Houdini [2009, ENG] торрент без регистрации

 
Статистика раздачи
Размер:  190 MB   |    Скачан:  109 раз
Сидов:  1  [  0 KB/s  ]  
 
Автор Сообщение

Moln!a

[] 

Getting Started with Stereoscopy in Houdini
Год выпуска: 2009
Производитель: Digital Tutors
Сайт производителя: http://www.digitaltutors.com/11/training.php?pid=122
Продолжительность: 00:36:05
Тип раздаваемого материала: Видеоурок
Язык: Английский
Описание: In this course we will learn about setting up and rendering stereoscopic effects in Houdini.
In this project we will learn about the fundamentals of stereoscopy and some guidelines to setting up comfortable stereo imagery. We will learn how to use the stereo cam rig in Houdini as well as how to use the 3d display to preview and set the parameters. Then we will go over how to preview, composite, and render the images using Mantra.
1. Introduction and project overview
2. Understanding stereoscopy
3. Stereoscopy filter types
4. Stereo Camera and its specific parameters
5. Stereo Camera setting guidelines
6. Setting the Stereo Camera
7. Rendering stereoscopic files
8. Compositing the sequences
Файлы примеров: присутствуют
Формат видео: .flv
Видео: Flash Video 4, (FLV4), 784x656, 1.211 ratio, 1000 Kbps, 15 fps
Аудио: MPEG Audio Layer 3, 96kbps, 44100Hz, mono
General
Format : Flash Video
Overall bit rate : 1 022 Kbps
Encoded date : Sat Oct 17 19:53:13 2009
Writing application : Digital-Tutors - All rights reserved / Sorenson Squeeze
Video
Format : VP6
Bit rate : 1 000 Kbps
Width : 782 pixels
Height : 646 pixels
Display aspect ratio : 1.211
Frame rate mode : Constant
Frame rate : 15.000 fps
Bits/(Pixel*Frame) : 0.132
Stream size : 9.73 MiB (98%)
Audio
Format : MPEG Audio
Format version : Version 1
Format profile : Layer 3
Bit rate mode : Constant
Bit rate : 96.0 Kbps
Channel(s) : 1 channel
Sampling rate : 44.1 KHz
Bit depth : 16 bits
Stream size : 957 KiB (9%)



Скачать Getting.Started.with.Stereoscopy.in.Houdini.[2009.ENG].torrent без регистрации
Золото ЗОЛОТАЯ РАЗДАЧА! СКАЧАННОЕ НЕ ЗАСЧИТЫВАЕТСЯ! Золото
Дата: Зарегистрирован   [ Тип: внутренний ] Как тут cкачать?
MAGNET ссылка
MAGNET ссылка


Скачать .torrent

18 KB

Статус: проверено DHT
Скачан: торрент - 109 раз, раздача полностью - 1 раз
Размер: 190 MB
Оценка:  - (Голосов: 0)
Поблагодарили: 0
Поделиться ссылкой на эту раздачу с друзьями:
В контактеFacebookОдноклассникиTwitterLivejournalМой МирLiveinternet
 

 
Показать сообщения:    


Вы не можете начинать темы
Вы не можете отвечать на сообщения
Вы не можете редактировать свои сообщения
Вы не можете удалять свои сообщения
Вы не можете голосовать в опросах
Вы не можете прикреплять файлы к сообщениям
Вы можете скачивать файлы