Loading...
Error

Скачать Во все тяжкие / Breaking Bad (Сезон 5, серии 1-16 из 16) (Адам Бернштейн, Брайан Крэнстон, Терри МакДонаф) 2012-2013, Криминал, драма, триллер, WEB-DLRip-AVC 720p][DD5.1][LostFilm] торрент без регистрации

 
Статистика раздачи
Размер:  18,64 GB   |    Скачан:  7357 раз
Сидов:  1  [  0 KB/s  ]  
 
Автор Сообщение

Nikolai.Baranov

[] 





Во все тяжкие / Breaking Bad




Год выпуска: 2012-2013
Выпущено: США
Жанр: Криминал, драма, триллер
Продолжительность: 00:43:55
Сезон: 5
Серии: 1-16
Количество серий в сезоне: 16
Озвучка:Профессиональная, многоголосая, закадровая(Lostfilm)
Субтитры: НЕТ

Сайт сериала:



Режиссер: Адам Бернштейн, Брайан Крэнстон, Терри МакДонаф

В ролях: Брайан Крэнстон, Аарон Пол, Кармен Серано, Дэвид Хаус, Кристен Риттер, Бетси Брандт, Дин Норрис, Анна Ганн, Стивен Майкл Квезада


Уолтер Уайт стал торговцем наркотиками по стечению обстоятельств. Его сын инвалид, жена была беременна вторым ребенком, а денег скромному преподавателю химии в школе катастрофически не хватало. Подработка на автомойке давала совсем немного денег, зато забирала много сил у уже немолодого человека. Однажды он узнал, что его бывший ученик торгует наркотиками, и предложил тому заняться продажей метамфетамина. Для его производства у химика есть все необходимые знания, и теперь на улицах Альбукерке, штат Нью-Мексико можно купить метамфетамин, изготовляемый в трейлере где то далеко в пустыне от города, который к тому же родственник сотрудника отдела полиции по борьбе с наркотиками. Это и позволяет Уолтеру быть в курсе планов полиции по выявлению и задержанию действующих в городе наркодилеров.

Качество: WEB-DLRip-AVC 720p
Формат: MPEG-4
Видео кодек: H264
Видео: 3107Кбит/сек,1280х720(16.9),в 25.000кадр/сек,AVC(Baseline@L3.1)(1Ref Frames)
Аудио кодек: AAC
Аудио Russian Dolby Digital 5.1:456Кбит/сек,44.1КГц,6каналов,AAC,(Version4)(LC)


Русская звуковая дорожка сделана путем наложения чистого голоса озвучивателей на центральный канал оригинальной дорожки. Качество идентично английской звуковой дорожке.



Эпизод - 01: Живи свободным или умри (Live Free or Die)
Эпизод - 02: Мадригал (Madrigal)
Эпизод - 03: Отсидные (Hazard Pay)
Эпизод - 04: Пятьдесят один (Fifty-One)
Эпизод - 05: Мёртвый фрахт (Dead Freight)
Эпизод - 06: Выкуп (Buyout)
Эпизод - 07: Скажи мое имя (Say My Name)
Эпизод - 08: Паря над всем (Gliding Over All)
Эпизод - 09:Кровавые деньги (Blood Money)
Эпизод - 10:Зарытое (Buried)
Эпизод - 11:Признания (Confessions)
Эпизод - 12:Бешеный пёс (Rabid Dog)
Эпизод - 13:То'хаджили (To'hajiilee)
Эпизод - 14:Озимандий (Ozymandias)
Эпизод - 15:Гранитный штат (Granite State)
Эпизод - 16:Фелина (Felina)



General
Полное имя : F:\К И Н О\С Е Р И А Л Ы\В О В С Е Т Я Ж К И Е\Breaking_Bad_2012_-_2013_S05_rus[LostFilm_TV]_DD5.1_x264_Nikolai.Baranov_WEB-DLRip.AVC_(720p)\Breaking_Bad_2012_S05е01_rus[LostFilm_TV]_DD5.1_x264_Nikolai.Baranov_WEB-DLRip.AVC_(720p).mp4
Формат : MPEG-4
Профиль формата : Base Media
Идентификатор кодека : isom
Размер файла : 1.07 GiB
Продолжительность : 43mn 3s
Режим общего битрейта : Variable
Общий поток : 3 565 Kbps
Дата кодирования : UTC 2012-07-24 15:41:32
Дата пометки : UTC 2012-07-24 15:41:32
Программа кодирования : Lavf51.12.1

Video
Идентификатор : 1
Формат : AVC
Формат/Информация : Advanced Video Codec
Профиль формата : Baseline@L3.1
Параметр CABAC формата : No
Параметр ReFrames формата : 1 frame
Параметр GOP формата : M=1, N=12
Идентификатор кодека : avc1
Идентификатор кодека/Информация : Advanced Video Coding
Продолжительность : 43mn 3s
Вид битрейта : Variable
Битрейт : 3 107 Kbps
Максимальный битрейт : 4 500 Kbps
Ширина : 1 280 pixels
Высота : 720 pixels
Соотношение сторон : 16:9
Режим частоты кадров : Constant
Частота кадров : 25.000 fps
Частота кадров в оригинале : 24.000 fps
Цветовое пространство : YUV
Субдискретизация насыщенности : 4:2:0
Битовая глубина : 8 bits
Тип развёртки : Progressive
Бит/(Пиксели*Кадры) : 0.135
Размер потока : 957 MiB (87%)
Дата кодирования : UTC 2012-07-24 15:41:32
Дата пометки : UTC 2012-07-24 15:41:32

Audio
Идентификатор : 2
Формат : AAC
Формат/Информация : Advanced Audio Codec
Профиль формата : LC
Идентификатор кодека : 40
Продолжительность : 43mn 3s
Вид битрейта : Variable
Битрейт : 455 Kbps
Каналы : 6 channels
Расположение каналов : Front: L C R, Side: L R, LFE
Частота : 44.1 KHz
Метод сжатия : Lossy
Размер потока : 140 MiB (13%)
Дата кодирования : UTC 2012-07-24 15:41:32
Дата пометки : UTC 2012-07-24 15:41:32







ВНИМАНИЕ!!! В фильме присутствует ненормативная лексика, сцены насилия, секса и жестокости! Не рекомендуется для семейного просмотра с детьми.

СЕРИАЛ, КАТЕГОРИЧЕСКИ РЕКОМЕНДОВАННЫЙ К ПРОСМОТРУ.



1. Открыть торрент
2. Снять галки с тех файлов торрента, которые мы не хотим закачивать. Оставляем только на нужных нам файлах (файле).
3. Нажать О.К.

В клиенте utorrent

Инструкция

1) Открыть торрент


2) Снять галки с тех файлов торрента, которые мы не хотим закачивать:

* либо вручную, снимая с каждого файла галку( скрин №1)
* либо, нажав кнопку "Снять метки (Select None)", сняв сразу со всех файлов(скрин №2)
№1

№2

Оставляем только на нужных нам файлах (файле).

3)Нажать О.К


Внимание!!!01.10. 2012. РАЗДАЧА ОБНОВЛЕНА.ФИНАЛ СЕЗОНА.ОБНОВИТЕ ТОРЕНТ ФАЙЛ.ПРИЯТНОГО ПРОСМОТРА.

Релиз от: Nikolai.Baranov










Скачать Во.все.тяжкие.Breaking.Bad.(Сезон.5.серии.1-16.из.16).(Адам.Бернштейн.Брайан.Крэнстон.Терри.МакДонаф).2012-2013.Криминал.драма.триллер.WEB-DLRip-AVC.720p][DD5.1][LostFilm].torrent без регистрации
Золото ЗОЛОТАЯ РАЗДАЧА! СКАЧАННОЕ НЕ ЗАСЧИТЫВАЕТСЯ! Золото
Дата: Зарегистрирован   [ Тип: внутренний ] Как тут cкачать?
MAGNET ссылка
MAGNET ссылка


Скачать .torrent

49 KB

Статус: проверено DHT
Скачан: торрент - 7357 раз, раздача полностью - 924 раз
Размер: 18,64 GB
Оценка:  5 (Голосов: 9)
Поблагодарили: 27
Поделиться ссылкой на эту раздачу с друзьями:
В контактеFacebookОдноклассникиTwitterLivejournalМой МирLiveinternet
 

 
Показать сообщения:    


Вы не можете начинать темы
Вы не можете отвечать на сообщения
Вы не можете редактировать свои сообщения
Вы не можете удалять свои сообщения
Вы не можете голосовать в опросах
Вы не можете прикреплять файлы к сообщениям
Вы можете скачивать файлы