Loading...
Error

Скачать Просветленная / Enlightened (сезон 01) (Мигель Артета) [2011, драма, комедия, HDTVRip] [DVO (NewStudio)] торрент без регистрации

 
Статистика раздачи
Размер:  2,98 GB   |    Скачан:  307 раз

Полного источника не было: 29 минут

 
Автор Сообщение

МихаНЕзатор

[] 

Название: Просветленная
Оригинальное название: Enlightened
Год выпуска: 2011
Страна: США
Жанр: драма, комедия
Продолжительность: 08 х ~ 00:30:00
Перевод: Профессиональный двухголосый закадровый - NewStudio
Субтитры: Нет
Режиссер: Мигель Артета

В ролях: Лора Дерн, Дайан Лэдд, Сара Бёрнс, Люк Уилсон, Тимм Шарп, Майк Уайт

Описание: Эми Джеллико, амбициозный менеджер в глобальном конгломерате, всегда была своим собственным врагом номер один. Ее саморазрушительные решения, как на работе, так и дома, стали причиной её нервного срыва. После долгой реабилитации на Гавайях, Эми возвращается к своей разбитой жизни с твёрдым намерением вести просвещённое существование. Но её благородные намерения вносят ещё больше хаоса и добавляют драмы. Оказывается, никому не нравится новая, просвещённая Эми.

Перевод: Анна Тимонькина
Озвучка: Demonnn, Анна Тух
Работа со звуком: Demonnn
Рип видео: Koss



Качество: HDTVRip
Формат: AVI
Видео кодек: XviD
Аудио кодек: MP3
Видео: MPEG4, XviD, 720x400 (16/9), 23.976 fps, 1 331 Kbps (0.193 bit/pixel)
Аудио rus: MP3, 48.0 KHz, 2 ch, 128 Kbps, CBR
Аудио eng: MP3, 48.0 KHz, 2 ch, 128 Kbps, CBR

[b]Добавлена 09-ая и 10-ая серии. Сезон закончен.[/b]

Эпизод 1
Pilot 10 октября 2011
Эпизод 2
Now or Never 17 октября 2011
Эпизод 3
Someone Else's Life 24 октября 2011
Эпизод 4
The Weekend 31 октября 2011
Эпизод 5
Not Good Enough Mothers 7 ноября 2011
Эпизод 6
Sandy 14 ноября 2011
Эпизод 7
Lonely Ghosts 21 ноября 2011
Эпизод 8
Comrades Unite! 28 ноября 2011
Эпизод 9
Consider Helen 5 декабря 2011
Эпизод 10
Burn It Down
General
Complete name : I:ЗАКАЧКИEnlightened.s01e01.HDTVRip.NewStudio.TV.avi
Format : AVI
Format/Info : Audio Video Interleave
File size : 350 MiB
Duration : 30mn 31s
Overall bit rate : 1 601 Kbps
Writing application : VirtualDubMod 1.5.10.2 (build 2540/release)
Writing library : VirtualDubMod build 2540/release

Video
ID : 0
Format : MPEG-4 Visual
Format profile : Advanced Simple@L5
Format settings, BVOP : 2
Format settings, QPel : No
Format settings, GMC : No warppoints
Format settings, Matrix : Default (MPEG)
Codec ID : XVID
Codec ID/Hint : XviD
Duration : 30mn 31s
Bit rate : 1 331 Kbps
Width : 720 pixels
Height : 400 pixels
Display aspect ratio : 16:9
Frame rate : 23.976 fps
Color space : YUV
Chroma subsampling : 4:2:0
Bit depth : 8 bits
Scan type : Progressive
Compression mode : Lossy
Bits/(Pixel*Frame) : 0.193
Stream size : 291 MiB (83%)
Writing library : XviD 64

Audio #1
ID : 1
Format : MPEG Audio
Format version : Version 1
Format profile : Layer 3
Mode : Joint stereo
Mode extension : MS Stereo
Codec ID : 55
Codec ID/Hint : MP3
Duration : 30mn 31s
Bit rate mode : Constant
Bit rate : 128 Kbps
Channel(s) : 2 channels
Sampling rate : 48.0 KHz
Compression mode : Lossy
Stream size : 27.9 MiB (8%)
Alignment : Aligned on interleaves
Interleave, duration : 42 ms (1.00 video frame)
Interleave, preload duration : 504 ms
Writing library : LAME3.98r
Encoding settings : -m j -V 4 -q 0 -lowpass 17 -b 128

Audio #2
ID : 2
Format : MPEG Audio
Format version : Version 1
Format profile : Layer 3
Mode : Joint stereo
Mode extension : MS Stereo
Codec ID : 55
Codec ID/Hint : MP3
Duration : 30mn 31s
Bit rate mode : Constant
Bit rate : 128 Kbps
Channel(s) : 2 channels
Sampling rate : 48.0 KHz
Compression mode : Lossy
Stream size : 27.9 MiB (8%)
Alignment : Aligned on interleaves
Interleave, duration : 42 ms (1.00 video frame)
Interleave, preload duration : 504 ms
Релиз от:



Скачать Просветленная.Enlightened.(сезон.01).(Мигель.Артета).[2011.драма.комедия.HDTVRip].[DVO.(NewStudio)].torrent без регистрации
Золото ЗОЛОТАЯ РАЗДАЧА! СКАЧАННОЕ НЕ ЗАСЧИТЫВАЕТСЯ! Золото
Дата: Зарегистрирован   [ Тип: внутренний ] Как тут cкачать?
MAGNET ссылка
MAGNET ссылка


Скачать .torrent

16 KB

Статус: проверено DHT
Скачан: торрент - 307 раз, раздача полностью - 1 раз
Размер: 2,98 GB
Оценка:  - (Голосов: 0)
Поблагодарили: 1
Поделиться ссылкой на эту раздачу с друзьями:
В контактеFacebookОдноклассникиTwitterLivejournalМой МирLiveinternet
 

 
Показать сообщения:    


Вы не можете начинать темы
Вы не можете отвечать на сообщения
Вы не можете редактировать свои сообщения
Вы не можете удалять свои сообщения
Вы не можете голосовать в опросах
Вы не можете прикреплять файлы к сообщениям
Вы можете скачивать файлы