Loading...
Error

Скачать Дневники Кэрри / The Carrie Diaries (Сезон 1, серии 01-04 из ?) (Мигель Артета, Норман Баккли) [2013, мелодрама, комедия, WEB-DL] [720p] [DVO] (NewStudio) торрент без регистрации

 
Статистика раздачи
Размер:  5,58 GB   |    Скачан:  132 раза
Сидов:  1  [  0 KB/s  ]  
 
Автор Сообщение

leon030982

[] 

Дневники Кэрри / The Carrie Diaries


Год выпуска: 2013
Страна: США | The CW
Жанр: Мелодрама, комедия
Продолжительность: ~ 00:44:00
Перевод: Профессиональный (двухголосый, закадровый) - NewStudio
Субтитры: Нет

Режиссёры: Мигель Артета, Норман Баккли
В ролях: Анна-София Робб, Адриана ДеМео, Кейт Ноулин, Александра Миллер, Уитни Вэнс, Фрима Аджйеман и др.
Описание: Кэрри Брэдшоу учится в выпускном классе средней школы в начале 1980-х годов. Она сталкивается с первыми вопросами о любви, сексе, дружбе и семье во время учебы в школе и жизни на Манхэттене.
Качество: WEB-DL 720p
Формат: MKV
Видео кодек: AVC
Аудио кодек: AC3
Видео: 1280x720 (16/9), 23.976 fps, 3 918 Kbps (0.177 bit/pixel)
Аудио Rus: 48.0 KHz, 6 ch, 384 Kbps |NewStudio|
Аудио Eng: 48.0 KHz, 6 ch, 384 Kbps |Original|

Озвучка: Артём Мирон, Юля Котурбаш
Перевод: Полина Лыкова
Подготовка видео: Koss
Работа со звуком: LocDog
Постер: Vortex
/ Сэмпл / ImDB / Кинопоиск
[b]General
Unique ID : 243838075011488551728090049229619717764 (0xB77181494B6A35FEBB825937E687E684)
Complete name : D:\РАЗДАЧИ (HD)\Дневники Кэрри.WEB-DL.720p.NewStudio\The.Carrie.Diaries.s01e01.WEBDL.720p.NewStudio.TV.mkv
Format : Matroska
File size : 1.42 GiB
Duration : 42mn 37s
Overall bit rate : 4 781 Kbps
Encoded date : UTC 2013-01-17 21:24:41
Writing application : mkvmerge v2.9.9 ('Tutu') built on Nov 25 2009 21:13:32
Writing library : libebml v0.7.9 + libmatroska v0.8.1
Video
ID : 1
Format : AVC
Format/Info : Advanced Video Codec
Format profile : High@L3.1
Format settings, CABAC : No
Format settings, ReFrames : 2 frames
Format settings, GOP : M=2, N=20
Codec ID : V_MPEG4/ISO/AVC
Duration : 42mn 37s
Bit rate : 3 918 Kbps
Width : 1 280 pixels
Height : 720 pixels
Display aspect ratio : 16:9
Frame rate : 23.976 fps
Color space : YUV
Chroma subsampling : 4:2:0
Bit depth : 8 bits
Scan type : Progressive
Bits/(Pixel*Frame) : 0.177
Stream size : 1.17 GiB (82%)
Language : English
Color primaries : BT.709-5, BT.1361, IEC 61966-2-4, SMPTE RP177
Transfer characteristics : BT.709-5, BT.1361
Matrix coefficients : BT.709-5, BT.1361, IEC 61966-2-4 709, SMPTE RP177
Audio #1
ID : 2
Format : AC-3
Format/Info : Audio Coding 3
Mode extension : CM (complete main)
Codec ID : A_AC3
Duration : 42mn 37s
Bit rate mode : Constant
Bit rate : 384 Kbps
Channel(s) : 6 channels
Channel positions : Front: L C R, Side: L R, LFE
Sampling rate : 48.0 KHz
Bit depth : 16 bits
Compression mode : Lossy
Stream size : 117 MiB (8%)
Audio #2
ID : 3
Format : AC-3
Format/Info : Audio Coding 3
Mode extension : CM (complete main)
Codec ID : A_AC3
Duration : 42mn 37s
Bit rate mode : Constant
Bit rate : 384 Kbps
Channel(s) : 6 channels
Channel positions : Front: L C R, Side: L R, LFE
Sampling rate : 48.0 KHz
Bit depth : 16 bits
Compression mode : Lossy
Stream size : 117 MiB (8%)
Language : English
Внимание! Раздача ведётся путём добавления новых серий; при каждом добавлении создётся новый торрент. Чтобы начать докачку новой серии, пользователям необходимо сделать следующее:Остановить скачивание.
Удалить старый торрент у себя из клиента (старые серии удалять не надо).
Скачать новый торрент и запустить его у себя в клиенте вместо старого, при этом указать клиенту путь в старую папку куда и должно происходить скачивание новых серий.Ваш клиент при этом должен произвести хеширование (проверку) старой папки (если не производит сам - помогите ему сделать это), и будет докачивать только те серии которых у вас ещё нет. Старые серии при этом не удаляются, а продолжают раздаваться!
Eсли вы уже удалили старые серии, то предотвратить повторную закачку старых серий можно, отжав галочку в соответсвующих местах при запуске нового торрента. По возможности, желательно не удалять старые серии как можно дольше чтобы релизёр не столько продолжал раздавать старые серии, а смог сконцентрироваться на новых.
[align=center]
08.02.13 добавлена 4-я серия!



Скачать Дневники.Кэрри.The.Carrie.Diaries.(Сезон.1.серии.01-04.из.?).(Мигель.Артета.Норман.Баккли).[2013.мелодрама.комедия.WEB-DL].[720p].[DVO].(NewStudio).torrent без регистрации
Золото ЗОЛОТАЯ РАЗДАЧА! СКАЧАННОЕ НЕ ЗАСЧИТЫВАЕТСЯ! Золото
Дата: Зарегистрирован   [ Тип: внутренний ] Как тут cкачать?
MAGNET ссылка
MAGNET ссылка


Скачать .torrent

29 KB

Статус: проверено DHT
Скачан: торрент - 132 раз, раздача полностью - 9 раз
Размер: 5,58 GB
Оценка:  - (Голосов: 0)
Поблагодарили: 2
Поделиться ссылкой на эту раздачу с друзьями:
В контактеFacebookОдноклассникиTwitterLivejournalМой МирLiveinternet
 

 
Показать сообщения:    


Вы не можете начинать темы
Вы не можете отвечать на сообщения
Вы не можете редактировать свои сообщения
Вы не можете удалять свои сообщения
Вы не можете голосовать в опросах
Вы не можете прикреплять файлы к сообщениям
Вы можете скачивать файлы