Loading...
Error

Скачать Смертельная ловушка / Deadfall Trail (Роз) [2009, триллер, ужасы, DVDRip] [VO] торрент без регистрации

 
Статистика раздачи
Размер:  1,38 GB   |    Скачан:  136 раз
Сидов:  1  [  0 KB/s  ]  
 
Автор Сообщение

МихаНЕзатор

[] 

Смертельная ловушка / Deadfall Trail

Страна: США
Жанр: Триллер, ужасы
Год выпуска: 2009
Продолжительность: 01:37:26
Перевод: Одноголосый закадровый (Хихикающий доктор)
Cубтитры: нет
Режиссер: Роз / Roze

В ролях: Шэйн Дин, Кевин Грэй, Ричард Андерсон, Катрина Матушек, Слэйд Холл, Нил Троут

Описание: Джон, Джулиан и Пол выезжают на трехнедельную поездку в Национальный Лес. Задача во что бы то ни стало выжить при любых условиях с бутылкой воды и ножом. Но роковой поворот событий изменяет всё и мужчины вынуждены противостоять друг другу.


Релиз группы:



Внимание В фильме присутствует ненормативная лексика

Качество видео: DVDRip
Формат видео: AVI
Видео: Xvid 720x304 23.98fps 1 764 Kbps
Аудио: MPEG Audio Layer 3 44100Hz stereo 256kbps
Format : AVI
Format/Info : Audio Video Interleave
File size : 1.38 GiB
Duration : 1h 37mn
Overall bit rate : 2 029 Kbps
Writing application : VirtualDubMod 1.5.10.3 (build 2550/release)
Writing library : VirtualDubMod build 2550/release
Video
ID : 0
Format : MPEG-4 Visual
Format profile : Advanced Simple@L5
Format settings, BVOP : Yes
Format settings, QPel : No
Format settings, GMC : No warppoints
Format settings, Matrix : Default (MPEG)
Codec ID : XVID
Codec ID/Hint : XviD
Duration : 1h 37mn
Bit rate : 1 764 Kbps
Width : 720 pixels
Height : 304 pixels
Display aspect ratio : 2.35:1
Frame rate : 23.976 fps
Resolution : 8 bits
Colorimetry : 4:2:0
Scan type : Progressive
Bits/(Pixel*Frame) : 0.336
Stream size : 1.20 GiB (87%)
Writing library : XviD 1.2.1 (UTC 2008-12-04)
Audio
ID : 1
Format : MPEG Audio
Format version : Version 1
Format profile : Layer 3
Codec ID : 55
Codec ID/Hint : MP3
Duration : 1h 37mn
Bit rate mode : Constant
Bit rate : 256 Kbps
Channel(s) : 2 channels
Sampling rate : 44.1 KHz
Stream size : 178 MiB (13%)
Alignment : Split accross interleaves
Interleave, duration : 42 ms (1.00 video frame)
Interleave, preload duration : 500 ms



Скачать Смертельная.ловушка.Deadfall.Trail.(Роз).[2009.триллер.ужасы.DVDRip].[VO].torrent без регистрации
Золото ЗОЛОТАЯ РАЗДАЧА! СКАЧАННОЕ НЕ ЗАСЧИТЫВАЕТСЯ! Золото
Дата: Зарегистрирован   [ Тип: внутренний ] Как тут cкачать?
MAGNET ссылка
MAGNET ссылка


Скачать .torrent

14 KB

Статус: проверено DHT
Скачан: торрент - 136 раз, раздача полностью - 51 раз
Размер: 1,38 GB
Оценка:  - (Голосов: 0)
Поблагодарили: 3
Поделиться ссылкой на эту раздачу с друзьями:
В контактеFacebookОдноклассникиTwitterLivejournalМой МирLiveinternet
 

 
Показать сообщения:    


Вы не можете начинать темы
Вы не можете отвечать на сообщения
Вы не можете редактировать свои сообщения
Вы не можете удалять свои сообщения
Вы не можете голосовать в опросах
Вы не можете прикреплять файлы к сообщениям
Вы можете скачивать файлы