Loading...
Error

Скачать Почтальон / Il Postino / The Postman (Майкл Редфорд) [1994, Комедия, мелодрама, драма, биография, DVDRip] [DVO] торрент без регистрации

 
Статистика раздачи
Размер:  1,36 GB   |    Скачан:  129 раз
Сидов:  1  [  0 KB/s  ]  
 
Автор Сообщение

Marsianka

[] 


Название на русском: Почтальон
Название в оригинале: Il Postino / The Postman
Год выпуска: 1994
Страна: Франция, Италия, Бельгия
Жанр: Комедия, мелодрама, драма, биография
Продолжительность: 01:48:21
Перевод: Профессиональный (двухголосый закадровый)
Субтитры: Нет
Режиссёр: Майкл Редфорд / Michael Radford
В ролях: Филипп Нуаре, Массимо Троизи, Мария Грация Кучинотта, Ренато Скарпа, Линда Моретти, Серджо Солли
Описание фильма:
Марио Руопполо по профессии почтальон. Пабло Неруда, чилийский поэт, оказался на крошечном островке в Средиземном море. История дружбы двух мужчин, различных и кажущихся далёкими, наполнена симпатией и любовью к поэзии.

Качество: DVDRip
Формат: AVI
Видео кодек: XviD
Аудио кодек: AC3
Видео: 656x384 (1.71:1), 23.976 fps, XviD build 50 ~1399 kbps avg, 0.23 bit/pixel
Аудио 1: 48 kHz, AC3 Dolby Digital, 2/0 (L,R) ch, ~192 kbps [Русский]
Аудио 2: 48 kHz, AC3 Dolby Digital, 2/0 (L,R) ch, ~192 kbps [Итальянский]











Format : AVI
Format/Info : Audio Video Interleave
File size : 1.36 GiB
Duration : 1h 48mn
Overall bit rate : 1 798 Kbps
Writing application : VirtualDubMod 1.5.10.2 (build 2540/release)
Writing library : VirtualDubMod build 2540/release

Video
ID : 0
Format : MPEG-4 Visual
Format profile : Advanced Simple@L5
Format settings, BVOP : 2
Format settings, QPel : No
Format settings, GMC : No warppoints
Format settings, Matrix : Default (MPEG)
Codec ID : XVID
Codec ID/Hint : XviD
Duration : 1h 48mn
Bit rate : 1 400 Kbps
Width : 656 pixels
Height : 384 pixels
Display aspect ratio : 16:9
Frame rate : 23.976 fps
Color space : YUV
Chroma subsampling : 4:2:0
Bit depth : 8 bits
Scan type : Progressive
Compression mode : Lossy
Bits/(Pixel*Frame) : 0.232
Stream size : 1.06 GiB (78%)
Writing library : XviD 1.2.1 (UTC 2008-12-04)

Audio #1
ID : 1
Format : AC-3
Format/Info : Audio Coding 3
Mode extension : CM (complete main)
Codec ID : 2000
Duration : 1h 48mn
Bit rate mode : Constant
Bit rate : 192 Kbps
Channel(s) : 2 channels
Channel positions : Front: L R
Sampling rate : 48.0 KHz
Bit depth : 16 bits
Compression mode : Lossy
Stream size : 149 MiB (11%)
Alignment : Split accross interleaves
Interleave, duration : 42 ms (1.00 video frame)
Interleave, preload duration : 500 ms

Audio #2
ID : 2
Format : AC-3
Format/Info : Audio Coding 3
Mode extension : CM (complete main)
Codec ID : 2000
Duration : 1h 48mn
Bit rate mode : Constant
Bit rate : 192 Kbps
Channel(s) : 2 channels
Channel positions : Front: L R
Sampling rate : 48.0 KHz
Bit depth : 16 bits
Compression mode : Lossy
Stream size : 149 MiB (11%)
Alignment : Split accross interleaves
Interleave, duration : 42 ms (1.00 video frame)
Interleave, preload duration : 500 ms

Релиз от: renege79



Скачать Почтальон.Il.Postino.The.Postman.(Майкл.Редфорд).[1994.Комедия.мелодрама.драма.биография.DVDRip].[DVO].torrent без регистрации
Золото ЗОЛОТАЯ РАЗДАЧА! СКАЧАННОЕ НЕ ЗАСЧИТЫВАЕТСЯ! Золото
Дата: Зарегистрирован   [ Тип: внутренний ] Как тут cкачать?
MAGNET ссылка
MAGNET ссылка


Скачать .torrent

14 KB

Статус: проверено DHT
Скачан: торрент - 129 раз, раздача полностью - 8 раз
Размер: 1,36 GB
Оценка:  - (Голосов: 0)
Поблагодарили: 2
Поделиться ссылкой на эту раздачу с друзьями:
В контактеFacebookОдноклассникиTwitterLivejournalМой МирLiveinternet
 

 
Показать сообщения:    


Вы не можете начинать темы
Вы не можете отвечать на сообщения
Вы не можете редактировать свои сообщения
Вы не можете удалять свои сообщения
Вы не можете голосовать в опросах
Вы не можете прикреплять файлы к сообщениям
Вы можете скачивать файлы