Loading...
Error

Скачать Игра престолов / Game of Thrones (сезон 03) [2012, фэнтези, драма, приключения, HDTVRip-AVC] 5x[MVO (AlexFilm, LostFilm, NovaFilm, NewStudio, Омикрон)] торрент без регистрации

 
Статистика раздачи
Размер:  16,36 GB   |    Скачан:  263 раза

Полного источника не было: 20 минут

 
Автор Сообщение

МихаНЕзатор

[] 

Игра престолов / Game of Thrones
Третий сезон.


Страна: США, Великобритания
Жанр: фэнтези, драма, приключения
Год выпуска: 2012
Продолжительность: ~ 00:57:00
Перевод:
Профессиональный многоголосый NewStudio & МЕКС.ИНФО

Профессиональный многоголосый NovaFilm

Профессиональный многоголосый LostFilm

Профессиональный многоголосый AlexFilm

Профессиональный многоголосый Студия "Омикрон" [thx UATeam]

Субтитры: русские (7kingdoms, МЕКС.ИНФО), английские
Оригинальная дорожка: английский

Режиссер: Алан Тейлор
В ролях: Лина Хиди, Питер Динклэйдж, Мишель Фэйрли, Эмилия Кларк, Кит Харингтон, Шон Бин, Николай Костер-Вальдау, Айэйн Глен, Марк Эдди, Эйден Гиллен
Описание: К концу подходит время благоденствия, и лето, длившееся несколько десятилетий, угасает. Вокруг средоточия власти Семи королевств, Железного трона, зреет заговор, и в это непростое время король решает искать поддержки у друга юности Эддарда Старка. В мире, где все от короля до наемника рвутся к власти, плетут интриги и готовы вонзить нож в спину, есть место и благородству, состраданию и любви. Между тем, никто не замечает пробуждение тьмы из легенд далеко на Севере и лишь Стена защищает живых к югу от нее.
Рейтинги:

Trailer HD
Раздача от: | Рип L | Работа со звуком: L и CooL

Внимание! В сериале присутствуют сцены с обнаженной натурой!
Качество видео: HDTVRip-AVC
Формат видео: MKV

Видео: AVC / High@L4.1 / 960 x 540 / ~ 2 000 Kbps / 16:9
Аудио: 48 kHz, AC3 Dolby Digital, 2 ch, ~384 Kbps - Оригинал
Аудио 2: Русский 48 kHz, AC3 Dolby Digital, 3/2 (L,C,R,l,r) + LFE ch, ~384 - NovaFilm (отдельно)
Аудио 3: Русский 48 kHz, AC3 Dolby Digital, 3/2 (L,C,R,l,r) + LFE ch, ~384 - AlexFilm (отдельно на 1-5 серии.)
Аудио 4: Русский 48 kHz, AC3 Dolby Digital, 2 ch, ~384 Kbps - NewStudio & МЕКС.ИНФО (отдельно)
Аудио 5: Русский 48 kHz, AC3 Dolby Digital, 2 ch, ~384 Kbps - LostFilm (Отдельно )
Аудио 6: Украинский 48 kHz, AC3 Dolby Digital, 2 ch, ~384 Kbps - Студия "Омикрон" (Отдельно)
Субтиры: русские (notabenoid, 7kingdoms, МЕКС.ИНФО) - srt

01. Valar Dohaeris
02. Dark Wings, Dark Words
03. Walk of Punishment
04. And Now His Watch Is Ended
05. Kissed by Fire
06. The Climb
07. The Bear and the Maiden Fair
08. Second Sons
09. The Rains of Castamere
10. Mhysa

-[NoImage] x264 [info]: frame I:753 Avg QP:14.27 size: 62838 PSNR Mean Y:50.14 U:56.56 V:56.70 Avg:51.29 Global:49.98
-[NoImage] x264 [info]: frame P:19968 Avg QP:16.16 size: 21804 PSNR Mean Y:48.02 U:53.07 V:53.19 Avg:49.09 Global:47.90
-[NoImage] x264 [info]: frame B:60555 Avg QP:18.30 size: 6498 PSNR Mean Y:47.92 U:53.60 V:53.74 Avg:49.01 Global:47.62

Общее
Уникальный идентификатор : 210508684199998349288106824208600298399 (0x9E5E7F72CC5E7E3D89A65B7F0DA8739F)
Полное имя : D:25KadrIgra.Prestolov.S03E01.HDTVRip.AVC.RG.25.Kadr[by.L]Igra.Prestolov.S03E01Igra.Prestolov.S03E01.HDTVRip.AVC.RG.25.Kadr[by.L].mkv
Формат : Matroska
Версия формата : Version 2
Размер файла : 1,06 Гбайт
Продолжительность : 56 м.
Общий поток : 2679 Кбит/сек
Название фильма : Игра престолов / Game of Thrones [2013] | Рип L [R.G. 25 Кадр] | Unionpeer.org | Tapochek.net
Дата кодирования : UTC 2013-04-03 18:18:41
Программа кодирования : mkvmerge v3.2.0 (''Beginnings'') built on Feb 12 2010 16:46:17
Библиотека кодирования : libebml v0.7.9 + libmatroska v0.8.1

Видео
Идентификатор : 1
Формат : AVC
Формат/Информация : Advanced Video Codec
Профиль формата : High@L4.1
Параметр CABAC формата : Да
Параметр ReFrames формата : 13 кадров
Идентификатор кодека : V_MPEG4/ISO/AVC
Продолжительность : 56 м.
Битрейт : 2100 Кбит/сек
Ширина : 960 пикселей
Высота : 540 пикселей
Соотношение сторон : 16:9
Режим частоты кадров : Постоянный
Частота кадров : 23,976 кадра/сек
Цветовое пространство : YUV
Субдискретизация насыщенности : 4:2:0
Битовая глубина : 8 бит
Тип развёртки : Прогрессивная
Бит/(Пиксели*Кадры) : 0.169
Размер потока : 828 Мбайт (77%)
Библиотека кодирования : x264 core 130 r2273 b3065e6
Настройки программы : cabac=1 / ref=13 / deblock=1:-2:-1 / analyse=0x3:0x133 / me=umh / subme=11 / psy=1 / psy_rd=1.10:0.05 / mixed_ref=1 / me_range=32 / chroma_me=1 / trellis=2 / 8x8dct=1 / cqm=0 / deadzone=21,11 / fast_pskip=1 / chroma_qp_offset=-5 / threads=6 / lookahead_threads=1 / sliced_threads=0 / nr=0 / decimate=1 / interlaced=0 / bluray_compat=0 / constrained_intra=0 / bframes=10 / b_pyramid=2 / b_adapt=2 / b_bias=0 / direct=3 / weightb=1 / open_gop=0 / weightp=2 / keyint=230 / keyint_min=21 / scenecut=40 / intra_refresh=0 / rc_lookahead=60 / rc=2pass / mbtree=0 / bitrate=2100 / ratetol=1.0 / qcomp=0.70 / qpmin=0 / qpmax=69 / qpstep=4 / cplxblur=20.0 / qblur=0.5 / vbv_maxrate=50000 / vbv_bufsize=62500 / nal_hrd=none / ip_ratio=1.35 / pb_ratio=1.25 / aq=2:0.90
Язык : English
Default : Нет
Forced : Нет

Аудио #1
Идентификатор : 2
Формат : AC-3
Формат/Информация : Audio Coding 3
Расширение режима : CM (complete main)
Параметр Endianness формата : Big
Идентификатор кодека : A_AC3
Продолжительность : 56 м.
Вид битрейта : Постоянный
Битрейт : 384 Кбит/сек
Каналы : 2 канала
Расположение каналов : Front: L R
Частота : 48,0 КГц
Битовая глубина : 16 бит
Метод сжатия : С потерями
Размер потока : 155 Мбайт (14%)
Заголовок : Оригинал
Язык : English
Default : Нет
Forced : Нет

Аудио #2
Идентификатор : 3
Формат : MPEG Audio
Версия формата : Version 1
Профиль формата : Layer 3
Режим : Joint stereo
Расширение режима : MS Stereo
Идентификатор кодека : A_MPEG/L3
Идентификатор кодека/Подсказка : MP3
Продолжительность : 56 м.
Вид битрейта : Постоянный
Битрейт : 192 Кбит/сек
Каналы : 2 канала
Частота : 48,0 КГц
Метод сжатия : С потерями
Размер потока : 77,6 Мбайт (7%)
Библиотека кодирования : LAME3.99r
Настройки программы : -m j -V 4 -q 3 -lowpass 18.6 -b 192
Default : Да
Forced : Нет

Текст #1
Идентификатор : 4
Формат : UTF-8
Идентификатор кодека : S_TEXT/UTF8
Идентификатор кодека/Информация : UTF-8 Plain Text
Заголовок : 7kingdoms
Язык : Russian
Default : Да
Forced : Нет

Текст #2
Идентификатор : 5
Формат : UTF-8
Идентификатор кодека : S_TEXT/UTF8
Идентификатор кодека/Информация : UTF-8 Plain Text
Заголовок : Мекс & Newstudio
Язык : Russian
Default : Нет
Forced : Нет

Текст #3
Идентификатор : 6
Формат : UTF-8
Идентификатор кодека : S_TEXT/UTF8
Идентификатор кодека/Информация : UTF-8 Plain Text
Язык : English
Default : Нет
Forced : Нет[/code]



Скачать Игра.престолов.Game.of.Thrones.(сезон.03).[2012.фэнтези.драма.приключения.HDTVRip-AVC].5x[MVO.(AlexFilm.LostFilm.NovaFilm.NewStudio.Омикрон)].torrent без регистрации
Золото ЗОЛОТАЯ РАЗДАЧА! СКАЧАННОЕ НЕ ЗАСЧИТЫВАЕТСЯ! Золото
Дата: Зарегистрирован   [ Тип: внутренний ] Как тут cкачать?
MAGNET ссылка
MAGNET ссылка


Скачать .torrent

89 KB

Статус: проверено DHT
Скачан: торрент - 263 раз, раздача полностью - 118 раз
Размер: 16,36 GB
Оценка:  5 (Голосов: 1)
Поблагодарили: 1
Поделиться ссылкой на эту раздачу с друзьями:
В контактеFacebookОдноклассникиTwitterLivejournalМой МирLiveinternet
 

 
Показать сообщения:    


Вы не можете начинать темы
Вы не можете отвечать на сообщения
Вы не можете редактировать свои сообщения
Вы не можете удалять свои сообщения
Вы не можете голосовать в опросах
Вы не можете прикреплять файлы к сообщениям
Вы можете скачивать файлы