Loading...
Error

Скачать Вашингтонское такси / D.C. Cab (Джоэл Шумахер) [1983, Боевик, Комедия, DVDRip] [DVO] торрент без регистрации

 
Статистика раздачи
Размер:  1,4 GB   |    Скачан:  2407 раз
Сидов:  1  [  0 KB/s  ]  
 
Автор Сообщение

Marsianka

[] 


Название на русском: Вашингтонское такси
Название в оригинале: D.C. Cab
Год выпуска: 1983
Страна: США
Жанр: Боевик, Комедия
Продолжительность: 01:39:07
Перевод: Профессиональный (двухголосый, закадровый) НТВ
Субтитры: Нет
Режиссёр: Джоэл Шумахер / Joel Schumacher
В ролях: Макс Гэйл, Адам Болдуин, Чарли Барнетт, Гэри Бьюзи, Глория Гиффорд, Дэвид Пол, Питер Пол, Мистер Ти, Марша Уорфилд, Билл Мехер, ДеВейн Джесси, Пол Родригез
Описание фильма:
Альберт Хокенберри приезжает в город с мечтой открыть собственное дело. Но это совсем непросто, и Альберт устраивается стажером в небольшой таксопарк, принадлежащий Гарольду. Компания находится на грани банкротства, и хозяин готов на все, чтобы остаться на плаву. Он просит таксистов проявить творческую жилку и сделать все возможное для спасения фирмы. И тут случается непредвиденное: Альберта похищают...

Формат: AVI
Видео кодек: XviD
Аудио кодек: AC3
Видео: 704x368 (1.91:1), 29.970 fps, XviD MPEG-4 ~1623 kbps avg, 0.21 bit/pixel
Аудио 1: 48 kHz, AC3 Dolby Digital, 2/0 (L,R) ch, ~192.00 kbps avg [Rus]
Аудио 2: 48 kHz, AC3 Dolby Digital, 2/0 (L,R) ch, ~192.00 kbps avg [Eng]















Format : AVI
Format/Info : Audio Video Interleave
File size : 1.40 GiB
Duration : 1h 39mn
Overall bit rate : 2 026 Kbps
Writing application : VirtualDubModRus 1.5.10.2 (build 2542/release)
Writing library : VirtualDubMod build 2542/release

Video
ID : 0
Format : MPEG-4 Visual
Format profile : Advanced Simple@L5
Format settings, BVOP : 2
Format settings, QPel : No
Format settings, GMC : No warppoints
Format settings, Matrix : Default (H.263)
Codec ID : XVID
Codec ID/Hint : XviD
Duration : 1h 39mn
Bit rate : 1 624 Kbps
Width : 704 pixels
Height : 368 pixels
Display aspect ratio : 1.913
Frame rate : 29.970 fps
Color space : YUV
Chroma subsampling : 4:2:0
Bit depth : 8 bits
Scan type : Progressive
Compression mode : Lossy
Bits/(Pixel*Frame) : 0.209
Stream size : 1.12 GiB (80%)
Writing library : XviD 1.2.1 (UTC 2008-12-04)

Audio #1
ID : 1
Format : AC-3
Format/Info : Audio Coding 3
Mode extension : CM (complete main)
Codec ID : 2000
Duration : 1h 39mn
Bit rate mode : Constant
Bit rate : 192 Kbps
Channel(s) : 2 channels
Channel positions : Front: L R
Sampling rate : 48.0 KHz
Bit depth : 16 bits
Compression mode : Lossy
Stream size : 136 MiB (9%)
Alignment : Split accross interleaves
Interleave, duration : 33 ms (1.00 video frame)
Interleave, preload duration : 500 ms

Audio #2
ID : 2
Format : AC-3
Format/Info : Audio Coding 3
Mode extension : CM (complete main)
Codec ID : 2000
Duration : 1h 39mn
Bit rate mode : Constant
Bit rate : 192 Kbps
Channel(s) : 2 channels
Channel positions : Front: L R
Sampling rate : 48.0 KHz
Bit depth : 16 bits
Compression mode : Lossy
Stream size : 136 MiB (9%)
Alignment : Split accross interleaves
Interleave, duration : 33 ms (1.00 video frame)
Interleave, preload duration : 500 ms

Релиз от: Termoros



Скачать Вашингтонское.такси.D.C.Cab.(Джоэл.Шумахер).[1983.Боевик.Комедия.DVDRip].[DVO].torrent без регистрации
Золото ЗОЛОТАЯ РАЗДАЧА! СКАЧАННОЕ НЕ ЗАСЧИТЫВАЕТСЯ! Золото
Дата: Зарегистрирован   [ Тип: внутренний ] Как тут cкачать?
MAGNET ссылка
MAGNET ссылка


Скачать .torrent

14 KB

Статус: проверено DHT
Скачан: торрент - 2407 раз, раздача полностью - 12 раз
Размер: 1,4 GB
Оценка:  - (Голосов: 0)
Поблагодарили: 2
Поделиться ссылкой на эту раздачу с друзьями:
В контактеFacebookОдноклассникиTwitterLivejournalМой МирLiveinternet
 

 
Показать сообщения:    


Вы не можете начинать темы
Вы не можете отвечать на сообщения
Вы не можете редактировать свои сообщения
Вы не можете удалять свои сообщения
Вы не можете голосовать в опросах
Вы не можете прикреплять файлы к сообщениям
Вы можете скачивать файлы