Loading...
Error

Скачать Почти герои / Almost Heroes (Кристофер Гест) [1998, Комедия, Приключения, DVDRip] [MVO] торрент без регистрации

 
Статистика раздачи
Размер:  1,37 GB   |    Скачан:  141 раз
Сидов:  1  [  0 KB/s  ]  
 
Автор Сообщение

Marsianka

[] 

Название на русском: Почти герои
Название в оригинале: Almost Heroes
Год выпуска: 1998
Страна: США
Жанр: Комедия, Приключения
Продолжительность: 01:30:13
Перевод: Профессиональный (многоголосый, закадровый)
Субтитры: Нет
Режиссёр: Кристофер Гест / Christopher Guest
В ролях: Крис Фарли, Мэттью Перри, Юджин Ливай, Кевин Данн, Боким Вудбайн, Лиза Барбаскиа, Дэвид Пэкер, Стивен М. Портер, Хэмилтон Кэмп, Пэтрик Грэншоу, Кристиан Клеменсон
Студия: DiNovi Pictures, Turner Pictures (I)
Описание фильма:
В 1794 году по поручению президента США состоялась экспедиция на Дикий Запад, в последствии названная экспедицией Льюиса и Кларка. Однако мало кто знает, что немногим ранее состоялась другая экспедиция по тому же маршруту.
Группа веселых дебоширов и бедолаг, невзирая на невероятные препятствия и козни врагов, достигла американских берегов Тихого океана и даже пошла немного далее.


Качество: DVDRip
Формат: AVI
Видео кодек: DivX
Аудио кодек: AC3
Видео: 704x416 (1.69:1), 23.976 fps, DivX Codec 6.8 ~1969 kbps avg, 0.28 bit/pixel
Аудио: 48 kHz, AC3 Dolby Digital, 2/0 (L,R) ch, ~192 kbps

















Format : AVI
Format/Info : Audio Video Interleave
File size : 1.37 GiB
Duration : 1h 30mn
Overall bit rate : 2 168 Kbps
Writing application : VirtualDubMod 1.5.4.1 (build 2178/release)
Writing library : VirtualDubMod build 2178/release

Video
ID : 0
Format : MPEG-4 Visual
Format settings, BVOP : 1
Format settings, QPel : No
Format settings, GMC : No warppoints
Format settings, Matrix : Default (H.263)
Muxing mode : Packed bitstream
Codec ID : DX50
Codec ID/Hint : DivX 5
Duration : 1h 30mn
Bit rate : 1 969 Kbps
Width : 704 pixels
Height : 416 pixels
Display aspect ratio : 1.692
Frame rate : 23.976 fps
Color space : YUV
Chroma subsampling : 4:2:0
Bit depth : 8 bits
Scan type : Progressive
Compression mode : Lossy
Bits/(Pixel*Frame) : 0.280
Stream size : 1.24 GiB (91%)
Writing library : DivX 6.8.0 (UTC 2007-12-04)

Audio
ID : 1
Format : AC-3
Format/Info : Audio Coding 3
Mode extension : CM (complete main)
Codec ID : 2000
Duration : 1h 30mn
Bit rate mode : Constant
Bit rate : 192 Kbps
Channel(s) : 2 channels
Channel positions : Front: L R
Sampling rate : 48.0 KHz
Bit depth : 16 bits
Compression mode : Lossy
Stream size : 124 MiB (9%)
Alignment : Split accross interleaves
Interleave, duration : 96 ms (2.30 video frames)
Interleave, preload duration : 96 ms
Language : Russian




Скачать Почти.герои.Almost.Heroes.(Кристофер.Гест).[1998.Комедия.Приключения.DVDRip].[MVO].torrent без регистрации
Золото ЗОЛОТАЯ РАЗДАЧА! СКАЧАННОЕ НЕ ЗАСЧИТЫВАЕТСЯ! Золото
Дата: Зарегистрирован   [ Тип: внутренний ] Как тут cкачать?
MAGNET ссылка
MAGNET ссылка


Скачать .torrent

14 KB

Статус: проверено DHT
Скачан: торрент - 141 раз, раздача полностью - 26 раз
Размер: 1,37 GB
Оценка:  - (Голосов: 0)
Поблагодарили: 3
Поделиться ссылкой на эту раздачу с друзьями:
В контактеFacebookОдноклассникиTwitterLivejournalМой МирLiveinternet
 

 
Показать сообщения:    


Вы не можете начинать темы
Вы не можете отвечать на сообщения
Вы не можете редактировать свои сообщения
Вы не можете удалять свои сообщения
Вы не можете голосовать в опросах
Вы не можете прикреплять файлы к сообщениям
Вы можете скачивать файлы