Loading...
Error

Скачать Игра престолов / Game of Thrones (сезон 03) (Алан Тейлор, Даниэль Минахан и др.) [2013, фэнтези, драма, приключения, WEB-DLRip] [720p] [MVO (AlexFilm)] торрент без регистрации

 
Статистика раздачи
Размер:  19,01 GB   |    Скачан:  124 раза
Сидов:  1  [  0 KB/s  ]  
 
Автор Сообщение

МихаНЕзатор

[] 

Название: Игра престолов
Оригинальное название: Game of Thrones
Жанр:: фэнтези, драма, приключения
Год выпуска: 2013
Режиссёр: Алан Тейлор, Даниэль Минахан, Дэвид Наттер, Брайан Кирк, Тимоти Ван Паттен, Дэвид Петрарка

В ролях: Лена Хиди, Питер Динклэйдж, Мишель Фэйрли, Эмилия Кларк, Кит Харингтон, Николай Костер-Валдау, Иэн Глен, Эйден Гиллен, Элфи Оуэн-Аллен, Мэйси Уильямс, Софи Тернер, Джек Глисон, Исаак Хемпстид-Райт, Ричард Мэдден, Джером Флинн, Конлет Хилл, Дональд Самптер, Рори МакКанн, Амрита Ачария, Чарльз Дэнс, Джон Брэдли, Кристиан Нэйрн, Сибель Кекилли, Джеймс Космо, Стивен Диллэйн, Гетин Энтони, Гвендолин Кристи, Натали Дормер, Уна Чаплин, Нонсо Анози, Роуз Лесли, Оуэн Тил, Уилко Джонсон, Питер Вон

Описание: Люди, отказавшиеся жить по законам Семи Королевств, получили название одичалых и были изгнаны за Стену, на страже которой стоит Ночной Дозор. Но орден был учрежден, чтобы защищать мир людей от совсем другой силы Белых Ходоков, ныне пробудившихся и угрожающих всему живому. Король одичалых Манс готов на все, чтобы убедить Дозор пропустить свой народ за Стену.
Однако южные лорды и короли как и прежде глухи к сообщениям о скорой зиме, о пробуждении Иных и о вторжении одичалых. Король Станнис Баратеон скрылся после поражения на Черноводной в своем замке, король Бейлон Грейджой разоряет побережье, король Робб теряет союзников, а король Джоффри, напротив, имея в союзниках два самых влиятельных дома Королевств, надеется вскоре разбить всех своих врагов. Третий сезон Игры престолов поставлен по первой половине третьего тома Песни Льда и Пламени (Буря мечей).

Выпущено: США, Северная Ирландия / HBO, Northern Ireland Scr
Продолжительность: 01 х ~ 00:55:00
Перевод: Профессиональный (многоголосый, закадровый) - AlexFilm
Субтитры: Русские, английские

Релиз: AlexFilm
Перевод: Александр Митраков (Opel), Ольга Галайда, Илья Белкин (Volverine73)
& Westeros (форум Ночного Дозора у Стены)
Роли озвучивали: Евгения Тихонова, Анна Тух,Пётр Иващенко (Гланц), Александр Воронов, Александр Дасевич, Константин Погодаев, Михаил Суслов

Релиз от:

Качество: WEB-DL 720p
Формат: МКV
Видео: MPEG-4 AVC, ~ 4000 Кбит/с, 1280x720
Аудио rus: АС3, 2 ch, 384 Кбит/с
Аудио eng: АС3, 6 ch, 384 Кбит/с

13.06.2013 г. торент обновлён, добавлена 9-10-я серия, сезон полностью!

01. Valar Dohaeris / Валар Дохариес
02. Черные крылья, черные вести / Dark Wings, Dark Word
03. Стезя страданий / Walk of Punishment
04. Теперь его дозор окончен / And Now His Watch is Ended
05. Поцелованная огнем / Kissed by Fire
06. Подъем / The Climb
07. Медведь и прекрасная дева / The Bear and the Maiden Fair
08. Младшие Сыны / Second Sons
09. Рейны из Кастамере / The Rains of Castamere
10. Миса / Mhysa
General
Unique ID : 251014048118225133175356680691152922633 (0xBCD78C138C38A120A9D91FE46DE52809)
Complete name : C:NewOutGame.of.Thrones.S03.720p.WEB-DL.AlexFilmGame.of.Thrones.S03E01.WEB-DL.720p.AlexFilm.mkv
Format : Matroska
File size : 1.86 GiB
Duration : 54mn 37s
Overall bit rate : 4 866 Kbps
Encoded date : UTC 2013-04-03 17:00:35
Writing application : mkvmerge v5.0.0 ('Die Wahre Liebe') built on Sep 25 2011 20:33:49
Writing library : libebml v1.2.2 + libmatroska v1.3.0

Video
ID : 1
Format : AVC
Format/Info : Advanced Video Codec
Format profile : High@L3.1
Format settings, CABAC : No
Format settings, ReFrames : 2 frames
Codec ID : V_MPEG4/ISO/AVC
Duration : 54mn 37s
Bit rate : 4 001 Kbps
Width : 1 280 pixels
Height : 720 pixels
Display aspect ratio : 16:9
Frame rate : 23.976 fps
Color space : YUV
Chroma subsampling : 4:2:0
Bit depth : 8 bits
Scan type : Progressive
Bits/(Pixel*Frame) : 0.181
Stream size : 1.53 GiB (82%)
Language : English
Color primaries : BT.709-5, BT.1361, IEC 61966-2-4, SMPTE RP177
Transfer characteristics : BT.709-5, BT.1361
Matrix coefficients : BT.709-5, BT.1361, IEC 61966-2-4 709, SMPTE RP177

Audio #1
ID : 2
Format : AC-3
Format/Info : Audio Coding 3
Mode extension : CM (complete main)
Codec ID : A_AC3
Duration : 54mn 37s
Bit rate mode : Constant
Bit rate : 384 Kbps
Channel(s) : 2 channels
Channel positions : Front: L R
Sampling rate : 44.1 KHz
Bit depth : 16 bits
Compression mode : Lossy
Delay relative to video : 1ms
Stream size : 150 MiB (8%)
Title : AlexFilm
Language : Russian

Audio #2
ID : 3
Format : AC-3
Format/Info : Audio Coding 3
Mode extension : CM (complete main)
Codec ID : A_AC3
Duration : 54mn 37s
Bit rate mode : Constant
Bit rate : 384 Kbps
Channel(s) : 6 channels
Channel positions : Front: L C R, Side: L R, LFE
Sampling rate : 48.0 KHz
Bit depth : 16 bits
Compression mode : Lossy
Stream size : 150 MiB (8%)
Language : English



Скачать Игра.престолов.Game.of.Thrones.(сезон.03).(Алан.Тейлор.Даниэль.Минахан.и.др.).[2013.фэнтези.драма.приключения.WEB-DLRip].[720p].[MVO.(AlexFilm)].torrent без регистрации
Золото ЗОЛОТАЯ РАЗДАЧА! СКАЧАННОЕ НЕ ЗАСЧИТЫВАЕТСЯ! Золото
Дата: Зарегистрирован   [ Тип: внутренний ] Как тут cкачать?
MAGNET ссылка
MAGNET ссылка


Скачать .torrent

96 KB

Статус: проверено DHT
Скачан: торрент - 124 раз, раздача полностью - 22 раз
Размер: 19,01 GB
Оценка:  - (Голосов: 0)
Поблагодарили: 0
Поделиться ссылкой на эту раздачу с друзьями:
В контактеFacebookОдноклассникиTwitterLivejournalМой МирLiveinternet
 

 

leon030982

[] 

обновлено az
 

МихаНЕзатор

[] 

Раздача обновлена.
 
Показать сообщения:    


Вы не можете начинать темы
Вы не можете отвечать на сообщения
Вы не можете редактировать свои сообщения
Вы не можете удалять свои сообщения
Вы не можете голосовать в опросах
Вы не можете прикреплять файлы к сообщениям
Вы можете скачивать файлы