Loading...
Error

Скачать Настоящая Кровь / True Blood (06x01-10) (Майкл Леманн, Алан Болл) [2013, фэнтези, триллер, драма, WEB-DLRip] [DVO (Кубик в Кубе)] торрент без регистрации

 
Статистика раздачи
Размер:  5,65 GB   |    Скачан:  385 раз
Сидов:  1  [  0 KB/s  ]  
 
Автор Сообщение

МихаНЕзатор

[] 

Настоящая кровь / True Blood


Год выпуска: 2013
Страна: США
Жанр: фэнтези, триллер, драма
Продолжительность: 55 мин
Перевод: Профессиональный двухголосый закадровый (Кубик в Кубе)
Субтитры: нет
Режиссер: Майкл Леманн / Michael Lehmann, Алан Болл / Alan Ball


В ролях:
Анна Пэкуин / Anna Paquin, Стивен Мойер / Stephen Moyer, Александр Скарсгард / Alexander Skarsg•rd, Сэм Трэммелл / Sam Trammell, Райан Квантен / Ryan Kwanten

Описание:
События разворачиваются в небольшом городке в пригороде Нового Орлеана. С тех пор, как японцы изобрели синтетическую кровь «True Blood», у вампиров отпала необходимость убивать простых смертных. Два года назад вампиры покинули свои гробы и официально заявили о своих правах. Но как водится, не все люди оказались готовы к этому, и не все вампиры были рады отказаться от привычного лакомства. Сьюки Стэкхауз обычная официантка из пригородного кафе, наделенная способностью читать мысли окружающих, знакомится с «хорошим» вампиром Биллом Комтоном. И сразу приобретает много врагов из «плохих парней».

Качество: WEB-DLRip
Формат: AVI
Видео кодек: XviD
Аудио кодек: MP3
Видео: 624x352 (1.77:1), 23.976 fps, XviD build 65 ~1000 kbps avg, 0.24 bit/pixel
Audio Rus: 48 kHz, MPEG Layer 3, 2 ch, ~224.00 kbps avg
Audio Eng: 48 kHz, MPEG Layer 3, 2 ch, ~224.00 kbps avg


Релиз:

Озвучка: Кубик в Кубе
Перевод: Инга Бу
При поддержке: AviaSales



[b]02.09.2013 г. торент обновлён, добавлена 9-10 серия!

[color=darkgreen]General
Complete name : L:Фтп 5СериалыНастоящая кровь(True Blood)True Blood Season 6 Kybik v KybeTrue.Blood.s06e01.rus.eng.CasStudio.TV.avi
Format : AVI
Format/Info : Audio Video Interleave
File size : 545 MiB
Duration : 52mn 5s
Overall bit rate : 1 462 Kbps
Writing application : VirtualDubMod 1.5.10.2 (build 2540/release)
Writing library : VirtualDubMod build 2540/release

Video
ID : 0
Format : MPEG-4 Visual
Format profile : Advanced Simple@L5
Format settings, BVOP : 1
Format settings, QPel : No
Format settings, GMC : No warppoints
Format settings, Matrix : Default (H.263)
Codec ID : XVID
Codec ID/Hint : XviD
Duration : 52mn 5s
Bit rate : 1 000 Kbps
Width : 624 pixels
Height : 352 pixels
Display aspect ratio : 16:9
Frame rate : 23.976 fps
Color space : YUV
Chroma subsampling : 4:2:0
Bit depth : 8 bits
Scan type : Progressive
Compression mode : Lossy
Bits/(Pixel*Frame) : 0.190
Stream size : 373 MiB (68%)
Writing library : XviD 65

Audio #1
ID : 1
Format : MPEG Audio
Format version : Version 1
Format profile : Layer 3
Codec ID : 55
Codec ID/Hint : MP3
Duration : 52mn 5s
Bit rate mode : Constant
Bit rate : 224 Kbps
Channel(s) : 2 channels
Sampling rate : 48.0 KHz
Compression mode : Lossy
Stream size : 83.5 MiB (15%)
Alignment : Aligned on interleaves
Interleave, duration : 42 ms (1.00 video frame)
Interleave, preload duration : 504 ms

Audio #2
ID : 2
Format : MPEG Audio
Format version : Version 1
Format profile : Layer 3
Mode : Joint stereo
Mode extension : MS Stereo
Codec ID : 55
Codec ID/Hint : MP3
Duration : 52mn 5s
Bit rate mode : Constant
Bit rate : 224 Kbps
Channel(s) : 2 channels
Sampling rate : 48.0 KHz
Compression mode : Lossy
Stream size : 83.5 MiB (15%)
Alignment : Aligned on interleaves
Interleave, duration : 42 ms (1.00 video frame)
Interleave, preload duration : 504 ms
Writing library : LAME3.99r
Encoding settings : -m j -V 4 -q 2 -lowpass 19.4 -b 224

[/color]

Внимание! Раздача ведётся путём добавления новых серий; при каждом добавлении создётся новый торрент. Чтобы начать докачку новой серии, пользователям необходимо сделать следующее: (1) остановить скачивание, (2) удалить старый торрент у себя из клиента (старые серии удалять не надо), (3) скачать новый торрент и запустить его у себя в клиенте вместо старого, при этом указать клиенту путь в старую папку куда и должно происходить скачивание новых серий.

Ваш клиент при этом должен произвести хеширование (проверку) старой папки (если не производит сам - помогите ему сделать это), и будет докачивать только те серии которых у вас ещё нет. Старые серии при этом не удаляются, а продолжают раздаваться!

Eсли вы уже удалили старые серии, то предотвратить повторную закачку старых серий можно, отжав галочку в соответсвующих местах при запуске нового торрента.



Скачать Настоящая.Кровь.True.Blood.(06x01-10).(Майкл.Леманн.Алан.Болл).[2013.фэнтези.триллер.драма.WEB-DLRip].[DVO.(Кубик.в.Кубе)].torrent без регистрации
Золото ЗОЛОТАЯ РАЗДАЧА! СКАЧАННОЕ НЕ ЗАСЧИТЫВАЕТСЯ! Золото
Дата: Зарегистрирован   [ Тип: внутренний ] Как тут cкачать?
MAGNET ссылка
MAGNET ссылка


Скачать .torrent

15 KB

Статус: проверено DHT
Скачан: торрент - 385 раз, раздача полностью - 187 раз
Размер: 5,65 GB
Оценка:  5 (Голосов: 2)
Поблагодарили: 3
Поделиться ссылкой на эту раздачу с друзьями:
В контактеFacebookОдноклассникиTwitterLivejournalМой МирLiveinternet
 

 

МихаНЕзатор

[] 

Раздача обновлена
 
Показать сообщения:    


Вы не можете начинать темы
Вы не можете отвечать на сообщения
Вы не можете редактировать свои сообщения
Вы не можете удалять свои сообщения
Вы не можете голосовать в опросах
Вы не можете прикреплять файлы к сообщениям
Вы можете скачивать файлы