Loading...
Error

Скачать Элементарно / Elementary (сезоны 01-02) (Джон Дэвид Коулз и др.) [2012-2014, драма, криминал, детектив, WEB-DLRip] [Dub (Первый канал, ТВ3)] торрент без регистрации

 
Статистика раздачи
Размер:  30,39 GB   |    Скачан:  2190 раз
Сидов:  1  [  0 KB/s  ]   Личеров:  3  [  0 KB/s  ]  
 
Автор Сообщение

МихаНЕзатор

[] 

Информация о фильме
Название: Элементарно
Оригинальное название: Elementary
Год выхода: 2012
Жанр: драма, криминал, детектив
Режиссер: Джон Дэвид Коулз, Майкл Куэста, Род Холкомб, Эндрю Бернштейн, Сет Манн

В ролях: Джонни Ли Миллер, Люси Лью, Эйдан Куинн, Джон Майкл Хилл, Даллас Робертс, Мэнни Перез, Джонатан Уолкер, Кристен Буш, Крэйг Уолкер, Майкл Натансон, Шерри Х. Арелл, Уорд Хортон, Дженнифер Феррин, Билл Хек, Кэйси Семашко, Роза Арредондо, Рей Лукас, Кен Маркс, Аса Сомерс, Пол Майкл Вэлли, Янси Ариас, Кейтлинн Бэйли, Эндрю Чемберлен, Майкл Кантримэн, Эрин Дилли, Натали Дормер, Рис Иванс, Ато Эссонда, Шон Пертуи, Линда Эмонд, Донни Кешаварц, Джордан Гелбер

О фильме: Новый сериал от канала CBS - это криминально-детективная драма "Элементарно". Новая интерпретация классического произведения Артура Конана Дойла о Шерлоке Холмсе. Но сюжет сериала будет развиваться не по классическому сценарию, главный герой поменяет не только прописку, он переедет из Лондона в Нью-Йорк, но и эпоху, сюжет будет разворачиваться в наше время. Также зрителей ждет еще один сюрприз, теперь у Шерлока будет не помощник в лице Доктора Ватсона а помощница, роль которой досталось обворожительной Люси Лью. «Элементарно» - современная криминальная драма о дуэте детектива Шерлока Холмса (Джонни Ли Миллер) и доктора Джоан Ватсон (Люси Лю), который решает самые запутанные дела в полицейском департаменте Нью-Йорка.

Релиз от:

Страна: США
Студия: CBS Television Studios, Hill of Beans Productions, Timberman-Beverly Productions
Продолжительность: 48 x ~ 00:43:00
Перевод: Дублированный [1-й Сезон - Первый канал], [2-й Сезон - ТВ3]

Файл
Формат: AVI
Качество: WEB-DLRip
Видео: XviD, 720x400, ~1800 kbps, 23.976 fps
Аудио: AC3, 44.1 KHz, 2 ch, 192 Kbps
Субтитры: Нет

АНОНСЫ ПОПУЛЯРНЫХ РАЗДАЧ


Торрент обновлён, добавлен 2-й сезон!

Сезон 1
01. Пилот / Pilot
02. Пока ты спала / While You Were Sleeping
03. Пожиратель детей / Child Predator
04. Крысиные бега / The Rat Race
05. Меньшее зло / Lesser Evils
06. Опасный полет / Flight Risk
07. Единственный выход / One Way To Get Off
08. Взрыв из прошлого / The Long Fuse
09. Взять все в свои руки / You Do It to Yourself
10. Левиафан / The Leviathan
11. Компромат / Dirty Laundry
12. М. / М.
13. Команда красных / The Red Team
14. Гений дедукции / The Deductionist
15. Огромная пушка, заряженная наркотиком / A Giant Gun, Filled with Drugs
16. Детали / Details
17. Второй вариант / Possibility Two
18. Острое ощущение дежавю / Déjà Vu All Over Again
19. Снежные ангелы / Snow Angels
20. Страховка мертвеца / Dead Man's Switch
21. Важная веха в истории / A Landmark Story
22. Управление риском / Risk Management
23. Та самая женщина / The Woman
24. Кое-что о героине / Heroine

Сезон 2
01. Девятая ступень / Step Nine
02. Решение задачи / Solve for X
03. Все мы / We Are Everyone
04. Отравленная ручка / Poison Pen
05. Древняя история / Ancient History
06. An Unnatural Arrangement
07. Маркиза / The Marchioness
08. Кровь гуще / Blood Is Thicker
09. По прямой / On the Line
10. Судороги / Tremors
11. Внутренний аудит / Internal Audit
12. Дьявольская натура / The Diabolical Kind
13. Дела семейные / All in the Family
14. Ходячие ископаемые / Dead Clade Walking
15. Труп де балет / Corpse De Ballet
16. Идеальное решение / The One Percent Solution
17. Ваши уши / Ears to You
18. Ищейка раковых клеток / The Hound of the Cancer Cells
19. Многоротый Аарон Колвиль / The Many Mouths of Andrew Colville
20. В пустоте / No Lack of Void
21. Человек с рассечённой губой / The Man With the Twisted Lip
22. Закрась её черным / Paint in Black
23. Искусство в крови / Art in the Blood
24. Великий эксперимент / The Grand Experiment
Complete name : E:KinoElementarno.XviD.WEB-DLRip.GeneralfilmElementarnoS01.2012-2013.XviD.WEB-DLRip.1K.GeneralfilmElementarnos01e05.2012.XviD.WEB-DLRip.1K.Generalfilm.avi
Format : AVI
Format/Info : Audio Video Interleave
File size : 620 MiB
Duration : 43mn 17s
Overall bit rate : 2 004 Kbps
Writing application : VirtualDubMod 1.5.10.3 | www.virtualdub-fr.org || (build 2550/release)
Writing library : VirtualDubMod build 2550/release

Video
ID : 0
Format : MPEG-4 Visual
Format profile : Advanced Simple@L5
Format settings, BVOP : 2
Format settings, QPel : No
Format settings, GMC : No warppoints
Format settings, Matrix : Default (H.263)
Codec ID : XVID
Codec ID/Hint : XviD
Duration : 43mn 17s
Bit rate : 1 802 Kbps
Width : 720 pixels
Height : 400 pixels
Display aspect ratio : 16:9
Frame rate : 23.976 fps
Color space : YUV
Chroma subsampling : 4:2:0
Bit depth : 8 bits
Scan type : Progressive
Compression mode : Lossy
Bits/(Pixel*Frame) : 0.261
Stream size : 558 MiB (90%)
Writing library : XviD 1.2.1 (UTC 2008-12-04)

Audio
ID : 1
Format : AC-3
Format/Info : Audio Coding 3
Mode extension : CM (complete main)
Format settings, Endianness : Big
Codec ID : 2000
Duration : 43mn 17s
Bit rate mode : Constant
Bit rate : 192 Kbps
Channel count : 2 channels
Channel positions : Front: L R
Sampling rate : 44.1 KHz
Bit depth : 16 bits
Compression mode : Lossy
Stream size : 59.4 MiB (10%)
Alignment : Split accross interleaves
Interleave, duration : 42 ms (1.00 video frame)
Interleave, preload duration : 500 ms



Скачать Элементарно.Elementary.(сезоны.01-02).(Джон.Дэвид.Коулз.и.др.).[2012-2014.драма.криминал.детектив.WEB-DLRip].[Dub.(Первый.канал.ТВ3)].torrent без регистрации
Золото ЗОЛОТАЯ РАЗДАЧА! СКАЧАННОЕ НЕ ЗАСЧИТЫВАЕТСЯ! Золото
Дата: Зарегистрирован   [ Тип: внутренний ] Как тут cкачать?
MAGNET ссылка
MAGNET ссылка


Скачать .torrent

84 KB

Статус: проверено DHT
Скачан: торрент - 2190 раз, раздача полностью - 0 раз
Размер: 30,39 GB
Оценка:  - (Голосов: 0)
Поблагодарили: 1
Поделиться ссылкой на эту раздачу с друзьями:
В контактеFacebookОдноклассникиTwitterLivejournalМой МирLiveinternet
 

 
Показать сообщения:    


Вы не можете начинать темы
Вы не можете отвечать на сообщения
Вы не можете редактировать свои сообщения
Вы не можете удалять свои сообщения
Вы не можете голосовать в опросах
Вы не можете прикреплять файлы к сообщениям
Вы можете скачивать файлы