Loading...
Error

Скачать Мистер Миллиард / Mr. Billion (Джонатан Каплан) [1977, Комедия, DVDRip] [MVO]+[AVO] [Володарский] торрент без регистрации

 
Статистика раздачи
Размер:  1,46 GB   |    Скачан:  154 раза
Сидов:  1  [  0 KB/s  ]  
 
Автор Сообщение

Marsianka

[] 

Название на русском: Мистер Миллиард
Название в оригинале: Mr. Billion

Год выпуска: 1977
Страна: США
Жанр: Комедия
Продолжительность: 01:28:59
Перевод:
1: Профессиональный (многоголосый закадровый)
2: Авторский (одноголосый закадровый) Леонид Володарский
Субтитры: Нет

Режиссёр: Джонатан Каплан / Jonathan Kaplan
В ролях: Теренс Хилл, Валери Перрин, Джеки Глисон, Слим Пикенс, Уильям Редфилд, Чилл Уиллс, Дик Миллер, Р.Г. Армстронг

Описание фильма:
Комедия о молодом человеке, простом механике из Италии, получившем в наследство огромную империю бизнеса после смерти его американского дядюшки. Для того, чтобы вступить в права наследства, ему надо появиться в Сан-Франциско не позже, чем через двадцать дней. Естественно, множество негодяев пытается ему помешать.



Качество: DVDRip
Формат: AVI
Видео кодек: XviD
Аудио кодек: AC3
Видео: 720x384 (1.88:1), 25 fps, XviD build 47 ~1942 kbps avg, 0.28 bit/pixel
Аудио 1: mvo - 48 kHz, AC3 Dolby Digital, 2/0 (L,R) ch, ~192 kbps
Аудио 2: avo - 48 kHz, AC3 Dolby Digital, 2/0 (L,R) ch, ~192 kbps











Format : AVI
Format/Info : Audio Video Interleave
File size : 1.46 GiB
Duration : 1h 28mn
Overall bit rate : 2 342 Kbps
Writing application : VirtualDubMod 1.5.10.2 (build 2540/release)
Writing library : VirtualDubMod build 2540/release

Video
ID : 0
Format : MPEG-4 Visual
Format profile : Advanced Simple@L5
Format settings, BVOP : 1
Format settings, QPel : No
Format settings, GMC : No warppoints
Format settings, Matrix : Default (MPEG)
Codec ID : XVID
Codec ID/Hint : XviD
Duration : 1h 28mn
Bit rate : 1 944 Kbps
Width : 720 pixels
Height : 384 pixels
Display aspect ratio : 1.875
Frame rate : 25.000 fps
Color space : YUV
Chroma subsampling : 4:2:0
Bit depth : 8 bits
Scan type : Progressive
Compression mode : Lossy
Bits/(Pixel*Frame) : 0.281
Stream size : 1.21 GiB (83%)
Writing library : XviD 1.2.0.dev47 (UTC 2006-11-01)

Audio #1
ID : 1
Format : AC-3
Format/Info : Audio Coding 3
Mode extension : CM (complete main)
Codec ID : 2000
Duration : 1h 28mn
Bit rate mode : Constant
Bit rate : 192 Kbps
Channel(s) : 2 channels
Channel positions : Front: L R
Sampling rate : 48.0 KHz
Bit depth : 16 bits
Compression mode : Lossy
Stream size : 122 MiB (8%)
Alignment : Split accross interleaves
Interleave, duration : 40 ms (1.00 video frame)
Interleave, preload duration : 500 ms

Audio #2
ID : 2
Format : AC-3
Format/Info : Audio Coding 3
Mode extension : CM (complete main)
Codec ID : 2000
Duration : 1h 28mn
Bit rate mode : Constant
Bit rate : 192 Kbps
Channel(s) : 2 channels
Channel positions : Front: L R
Sampling rate : 48.0 KHz
Bit depth : 16 bits
Compression mode : Lossy
Stream size : 122 MiB (8%)
Alignment : Split accross interleaves
Interleave, duration : 40 ms (1.00 video frame)
Interleave, preload duration : 500 ms

Релиз от: tеko



Скачать Мистер.Миллиард.Mr.Billion.(Джонатан.Каплан).[1977.Комедия.DVDRip].[MVO]+[AVO].[Володарский].torrent без регистрации
Золото ЗОЛОТАЯ РАЗДАЧА! СКАЧАННОЕ НЕ ЗАСЧИТЫВАЕТСЯ! Золото
Дата: Зарегистрирован   [ Тип: внутренний ] Как тут cкачать?
MAGNET ссылка
MAGNET ссылка


Скачать .torrent

15 KB

Статус: проверено DHT
Скачан: торрент - 154 раз, раздача полностью - 7 раз
Размер: 1,46 GB
Оценка:  - (Голосов: 0)
Поблагодарили: 1
Поделиться ссылкой на эту раздачу с друзьями:
В контактеFacebookОдноклассникиTwitterLivejournalМой МирLiveinternet
 

 
Показать сообщения:    


Вы не можете начинать темы
Вы не можете отвечать на сообщения
Вы не можете редактировать свои сообщения
Вы не можете удалять свои сообщения
Вы не можете голосовать в опросах
Вы не можете прикреплять файлы к сообщениям
Вы можете скачивать файлы