Loading...
Error

Скачать Ганнибал / Annibale / Hannibal (Карло Людовико Брагэглия, Эдгар Дж. Улмер) [1959, Исторический, драма, DVDRip] [MVO] торрент без регистрации

 
Статистика раздачи
Размер:  744 MB   |    Скачан:  123 раза
Сидов:  1  [  0 KB/s  ]  
 
Автор Сообщение

Marsianka

[] 

Название на русском: Ганнибал
Название в оригинале: Annibale / Hannibal

Страна: Италия
Жанр: Исторический, драма
Год выпуска: 1959
Продолжительность: 01:40:27
Перевод: Профессиональный (многоголосый, закадровый)
Субтитры: Нет

Режиссёр: Карло Людовико Брагэглия / Carlo Ludovico Bragaglia, Эдгар Дж. Улмер / Edgar G. Ulmer
В ролях: Виктор Мэтьюр , Габриэль Ферцетти , Рита Гэм , Мили Витале , Рик Бэттеглия, Теренс Хилл, Бад Спенсер

Описание фильма:
Сага о талантливом полководце Ганнибале, перешедшем со своей армией через Альпы, и железной волей сломившем и поставившем на колени великую Римскую империю.



Качество: DVDRip
Формат: AVI
Видео кодек: XviD
Аудио кодек: MP3
Видео: 640x496 (1.29:1), 25 fps, XviD MPEG-4 ~898 kbps avg, 0.11 bit/pixel
Аудио: 48 kHz, MPEG Layer 3, 2 ch, ~128.00 kbps avg











Format : AVI
Format/Info : Audio Video Interleave
File size : 744 MiB
Duration : 1h 40mn
Overall bit rate : 1 036 Kbps
Writing application : VirtualDubMod 1.5.10.2 (build 2540/release)
Writing library : VirtualDubMod build 2540/release

Video
ID : 0
Format : MPEG-4 Visual
Format profile : Advanced Simple@L5
Format settings, BVOP : 2
Format settings, QPel : No
Format settings, GMC : No warppoints
Format settings, Matrix : Custom
Muxing mode : Packed bitstream
Codec ID : XVID
Codec ID/Hint : XviD
Duration : 1h 40mn
Bit rate : 898 Kbps
Width : 640 pixels
Height : 496 pixels
Display aspect ratio : 1.290
Frame rate : 25.000 fps
Color space : YUV
Chroma subsampling : 4:2:0
Bit depth : 8 bits
Scan type : Progressive
Compression mode : Lossy
Bits/(Pixel*Frame) : 0.113
Stream size : 646 MiB (87%)
Writing library : XviD 1.2.1 (UTC 2008-12-04)

Audio
ID : 1
Format : MPEG Audio
Format version : Version 1
Format profile : Layer 3
Mode : Joint stereo
Mode extension : MS Stereo
Codec ID : 55
Codec ID/Hint : MP3
Duration : 1h 40mn
Bit rate mode : Constant
Bit rate : 128 Kbps
Channel(s) : 2 channels
Sampling rate : 48.0 KHz
Compression mode : Lossy
Stream size : 92.0 MiB (12%)
Alignment : Aligned on interleaves
Interleave, duration : 40 ms (1.00 video frame)
Interleave, preload duration : 504 ms

Релиз от: bm11



Скачать Ганнибал.Annibale.Hannibal.(Карло.Людовико.Брагэглия.Эдгар.Дж.Улмер).[1959.Исторический.драма.DVDRip].[MVO].torrent без регистрации
Золото ЗОЛОТАЯ РАЗДАЧА! СКАЧАННОЕ НЕ ЗАСЧИТЫВАЕТСЯ! Золото
Дата: Зарегистрирован   [ Тип: внутренний ] Как тут cкачать?
MAGNET ссылка
MAGNET ссылка


Скачать .torrent

15 KB

Статус: проверено DHT
Скачан: торрент - 123 раз, раздача полностью - 3 раз
Размер: 744 MB
Оценка:  - (Голосов: 0)
Поблагодарили: 1
Поделиться ссылкой на эту раздачу с друзьями:
В контактеFacebookОдноклассникиTwitterLivejournalМой МирLiveinternet
 

 
Показать сообщения:    


Вы не можете начинать темы
Вы не можете отвечать на сообщения
Вы не можете редактировать свои сообщения
Вы не можете удалять свои сообщения
Вы не можете голосовать в опросах
Вы не можете прикреплять файлы к сообщениям
Вы можете скачивать файлы