Loading...
Error

Скачать День Шакала / The Day of the Jackal (Фред Циннеман / Fred Zinnemann) [1973, политический детектив, триллер, драма, DVDRip-AVC] [2xMVO] + [DVO] + [2xAVO] торрент без регистрации

 
Статистика раздачи
Размер:  3,39 GB   |    Скачан:  134 раза
Сидов:  1  [  0 KB/s  ]  
 
Автор Сообщение

leon030982

[] 

День Шакала / The Day of the Jackal
Страна: Франция, Великобритания
Жанр: политический детектив, триллер, драма
Год выпуска: 1973
Продолжительность: 02:16:39
Перевод#1: Профессиональный (многоголосый закадровый) | 1 Канал
Перевод#2: Профессиональный (двухголосый закадровый) | НТВ
Перевод#3: Авторский (одноголосый закадровый), А. Михалев
Перевод#4: Профессиональный (многоголосый закадровый) | Н-Кино (отдельно)
Перевод#5: Авторский (одноголосый закадровый), В. Горчаков (отдельно)
Cубтитры: английские
Оригинальная аудиодорожка: английский
Режиссер: Фред Циннеман
Сценарий: Фредерик Форсайт, Кеннет Росс
В ролях: Эдвард Фокс, Алан Бадел, Тони Бриттон, Сирил Кьюcак, Микаэль Лонсдаль, Дельфин Сейриг, Эрик Портер, Дерек Джекоби, Рональд Пикап, Мишель Оклер
Описание:
Фильм, действие которого происходит во Франции в начале 60-х годов, основан на реальных событиях. Картина воспроизводит историю покушения на жизнь президента Франции Шарля де Голля, предпринятую ультраправой террористической организации ОАС. Исполнителем воли преступников стал опытный наемный убийца по кличке Шакал, согласившийся выполнить эту работу на полмиллиона долларов...

Имхо: первая и единственная экранизация, которая даёт некоторое представление о таланте автора. Ну может быть ещё The Odessa File 1974 можно посмотреть, остальное - только читать. Форсайт - эталон жанра, кто не читал книгу - смотреть обязательно
Исходник: DVD9
Качество видео: DVDRip-AVC | sample
Формат видео: MKV
Видео кодек: x264
Видео: AVC 718x414@766x414 (1.85:1), 25 fps, ~2490 Kbps, 0.33 bit/pixel
Аудио #1: Russian AC3 2ch 48kHz 192Kbps | MVO 1 Канал
Аудио #2: Russian AC3 2ch 48kHz 192Kbps | DVO НТВ
Аудио #3: Russian AC3 2ch 48kHz 192Kbps | AVO Михалев
Аудио #4: English AC3 1ch 48kHz 96Kbps | Original
Аудио #5: Russian AC3 2ch 48kHz 192Kbps | MVO Н-Кино (отдельным файлом)
Аудио #6: Russian AC3 2ch 48kHz 192Kbps | AVO Горчаков (отдельным файлом)
Формат субтитров: softsub (SRT)
Главы: есть
--[NoImage] raw [info]: 718x414p 5106:4667 @ 25/1 fps (cfr)
--[NoImage] x264 [info]: using SAR=5106/4667
--[NoImage] x264 [info]: using cpu capabilities: MMX2 SSE2
--[NoImage] x264 [info]: profile High, level 4.1
--[NoImage] x264 [info]: cabac=1 ref=14 deblock=1:-3:-3 analyse=0x3:0x133 me=umh subme=11 psy=1 fade_compensate=0.00 psy_rd=1.20:0.20 mixed_ref=1 me_range=64 chroma_me=1 trellis=2 8x8dct=1 cqm=0 deadzone=21,11 fast_pskip=1 chroma_qp_offset=-3 threads=6 sliced_threads=0 nr=0 decimate=1 interlaced=0 bluray_compat=0 constrained_intra=0 bframes=14 b_pyramid=2 b_adapt=2 b_bias=0 direct=1 weightb=1 open_gop=0 weightp=2 keyint=250 keyint_min=25 scenecut=40 intra_refresh=0 rc_lookahead=40 rc=crf mbtree=0 crf=19.5000 qcomp=0.65 qpmin=0 qpmax=69 qpstep=4 vbv_maxrate=17500 vbv_bufsize=14000 crf_max=0.0 nal_hrd=none ip_ratio=1.40 pb_ratio=1.20 aq=1:1.00
--[NoImage] x264 [info]: started at Wed Jan 25 13:11:22 2012
--[NoImage]
--[NoImage] x264 [info]: frame I:1200 Avg QP:19.12 size: 49279
--[NoImage] x264 [info]: frame P:38767 Avg QP:20.48 size: 22456
--[NoImage] x264 [info]: frame B:165009 Avg QP:22.01 size: 9820
--[NoImage] x264 [info]: consecutive B-frames: 0.9% 0.8% 3.1% 12.3% 17.3% 56.4% 6.9% 1.3% 0.6% 0.2% 0.1% 0.1% 0.1% 0.0% 0.0%
--[NoImage] x264 [info]: mb I I16..4: 7.8% 80.9% 11.3%
--[NoImage] x264 [info]: mb P I16..4: 0.4% 23.4% 1.2% P16..4: 26.2% 32.8% 11.1% 3.6% 0.3% skip: 1.0%
--[NoImage] x264 [info]: mb B I16..4: 0.0% 3.9% 0.1% B16..8: 35.2% 20.6% 3.7% direct:13.3% skip:23.3% L0:35.4% L1:36.0% BI:28.6%
--[NoImage] x264 [info]: 8x8 transform intra:94.0% inter:48.2%
--[NoImage] x264 [info]: coded y,uvDC,uvAC intra: 98.8% 79.4% 38.0% inter: 42.6% 32.2% 1.9%
--[NoImage] x264 [info]: i16 v,h,dc,p: 23% 6% 22% 49%
--[NoImage] x264 [info]: i8 v,h,dc,ddl,ddr,vr,hd,vl,hu: 11% 8% 15% 10% 11% 11% 10% 12% 12%
--[NoImage] x264 [info]: i4 v,h,dc,ddl,ddr,vr,hd,vl,hu: 10% 7% 5% 10% 15% 15% 14% 12% 13%
--[NoImage] x264 [info]: i8c dc,h,v,p: 31% 30% 24% 15%
--[NoImage] x264 [info]: Weighted P-Frames: Y:7.8% UV:2.0%
--[NoImage] x264 [info]: ref P L0: 33.1% 11.1% 21.3% 6.3% 6.9% 3.9% 4.7% 2.0% 2.5% 1.6% 2.0% 1.4% 1.7% 1.3% 0.1% 0.0%
--[NoImage] x264 [info]: ref B L0: 77.4% 11.8% 3.3% 1.9% 1.2% 1.2% 0.8% 0.6% 0.5% 0.5% 0.4% 0.3% 0.1%
--[NoImage] x264 [info]: ref B L1: 95.3% 4.7%
--[NoImage] x264 [info]: kb/s:2488.15
--[NoImage] encoded 204976 frames, 5.99 fps, 2488.15 kb/s
General
Complete name : D:\...\The.Day.of.the.Jackal.1973.PAL.DVDRip.x264.AC3.Rus.Eng-E76.mkv
Format : Matroska
Format version : Version 2
File size : 3.02 GiB
Duration : 2h 16mn
Overall bit rate : 3 163 Kbps
Movie name : The.Day.of.the.Jackal.1973.PAL.DVDRip.x264.AC3.Rus.Eng-E76
Encoded date : UTC 2012-01-31 00:56:16
Writing application : mkvmerge v5.2.1 ('A Far Off Place') built on Jan 2 2012 23:21:10
Writing library : libebml v1.2.3 + libmatroska v1.3.0
Video
ID : 1
Format : AVC
Format/Info : Advanced Video Codec
Format profile : High@L4.1
Format settings, CABAC : Yes
Format settings, ReFrames : 14 frames
Codec ID : V_MPEG4/ISO/AVC
Duration : 2h 16mn
Bit rate : 2 428 Kbps
Width : 718 pixels
Height : 414 pixels
Display aspect ratio : 1.850
Original display aspect ratio : 1.897
Frame rate : 25.000 fps
Color space : YUV
Chroma subsampling : 4:2:0
Bit depth : 8 bits
Scan type : Progressive
Bits/(Pixel*Frame) : 0.327
Stream size : 2.32 GiB (77%)
Title : Encode by Enclave76 for rutracker.org
Writing library : x264 core 120 r2146kMod bcd41db
Encoding settings : cabac=1 / ref=14 / deblock=1:-3:-3 / analyse=0x3:0x133 / me=umh / subme=11 / psy=1 / fade_compensate=0.00 / psy_rd=1.20:0.20 / mixed_ref=1 / me_range=64 / chroma_me=1 / trellis=2 / 8x8dct=1 / cqm=0 / deadzone=21,11 / fast_pskip=1 / chroma_qp_offset=-3 / threads=6 / sliced_threads=0 / nr=0 / decimate=1 / interlaced=0 / bluray_compat=0 / constrained_intra=0 / bframes=14 / b_pyramid=2 / b_adapt=2 / b_bias=0 / direct=1 / weightb=1 / open_gop=0 / weightp=2 / keyint=250 / keyint_min=25 / scenecut=40 / intra_refresh=0 / rc_lookahead=40 / rc=crf / mbtree=0 / crf=19.5000 / qcomp=0.65 / qpmin=0 / qpmax=69 / qpstep=4 / vbv_maxrate=17500 / vbv_bufsize=14000 / crf_max=0.0 / nal_hrd=none / ip_ratio=1.40 / pb_ratio=1.20 / aq=1:1.00
Language : English
Matrix coefficients : BT.470-6 System B, BT.470-6 System G, BT.601-6 625, BT.1358 625, BT.1700 625 PAL, BT.1700 625 SECAM, IEC 61966-2-4 601
Audio #1
ID : 2
Format : AC-3
Format/Info : Audio Coding 3
Mode extension : CM (complete main)
Codec ID : A_AC3
Duration : 2h 16mn
Bit rate mode : Constant
Bit rate : 192 Kbps
Channel(s) : 2 channels
Channel positions : Front: L R
Sampling rate : 48.0 KHz
Bit depth : 16 bits
Compression mode : Lossy
Stream size : 188 MiB (6%)
Title : MVO 1st channel
Language : Russian
Audio #2
ID : 3
Format : AC-3
Format/Info : Audio Coding 3
Mode extension : CM (complete main)
Codec ID : A_AC3
Duration : 2h 16mn
Bit rate mode : Constant
Bit rate : 192 Kbps
Channel(s) : 2 channels
Channel positions : Front: L R
Sampling rate : 48.0 KHz
Bit depth : 16 bits
Compression mode : Lossy
Stream size : 188 MiB (6%)
Title : DVO NTV
Language : Russian
Audio #3
ID : 4
Format : AC-3
Format/Info : Audio Coding 3
Mode extension : CM (complete main)
Codec ID : A_AC3
Duration : 2h 16mn
Bit rate mode : Constant
Bit rate : 192 Kbps
Channel(s) : 2 channels
Channel positions : Front: L R
Sampling rate : 48.0 KHz
Bit depth : 16 bits
Compression mode : Lossy
Stream size : 188 MiB (6%)
Title : AVO Mikhalev
Language : Russian
Audio #4
ID : 5
Format : AC-3
Format/Info : Audio Coding 3
Mode extension : CM (complete main)
Codec ID : A_AC3
Duration : 2h 16mn
Bit rate mode : Constant
Bit rate : 96.0 Kbps
Channel(s) : 1 channel
Channel positions : Front: C
Sampling rate : 48.0 KHz
Bit depth : 16 bits
Compression mode : Lossy
Stream size : 93.8 MiB (3%)
Title : Original
Language : English
Text
ID : 6
Format : UTF-8
Codec ID : S_TEXT/UTF8
Codec ID/Info : UTF-8 Plain Text
Language : English
Menu
00:00:00.000 : en:Chapter 01
00:07:48.480 : en:Chapter 02
...
02:16:39.360 : en:Chapter 17



Скачать День.Шакала.The.Day.of.the.Jackal.(Фред.Циннеман.Fred.Zinnemann).[1973.политический.детектив.триллер.драма.DVDRip-AVC].[2xMVO].+.[DVO].+.[2xAVO].torrent без регистрации
Золото ЗОЛОТАЯ РАЗДАЧА! СКАЧАННОЕ НЕ ЗАСЧИТЫВАЕТСЯ! Золото
Дата: Зарегистрирован   [ Тип: внутренний ] Как тут cкачать?
MAGNET ссылка
MAGNET ссылка


Скачать .torrent

18 KB

Статус: проверено DHT
Скачан: торрент - 134 раз, раздача полностью - 66 раз
Размер: 3,39 GB
Оценка:  5 (Голосов: 1)
Поблагодарили: 2
Поделиться ссылкой на эту раздачу с друзьями:
В контактеFacebookОдноклассникиTwitterLivejournalМой МирLiveinternet
 

 
Показать сообщения:    


Вы не можете начинать темы
Вы не можете отвечать на сообщения
Вы не можете редактировать свои сообщения
Вы не можете удалять свои сообщения
Вы не можете голосовать в опросах
Вы не можете прикреплять файлы к сообщениям
Вы можете скачивать файлы