Loading...
Error

Скачать Последняя женщина на Земле / The Last Woman on Earth (Роджер Корман / Roger Corman) [1960, постапокалипсис, драма, DVDRip] [цветная версия] [SUB] торрент без регистрации

 
Статистика раздачи
Размер:  729 MB   |    Скачан:  164 раза

Полного источника не было: 20 минут

 
Автор Сообщение

leon030982

[] 

Последняя женщина на Земле / The Last Woman on Earth
Страна: США
Жанр: постапокалипсис, драма
Год выпуска: 1960
Продолжительность: 01:04:14
Перевод: Субтитры VampirO
Cубтитры: русские
Оригинальная аудиодорожка: английский
Режиссер: Роджер Корман / Roger Corman
В ролях: Бетси Джонс-Мореленд, Энтони Кэрбон, Роберт Таун
Описание: Бизнесмен Гарольд вместе со своей новой пассией Эвелин и другом-адвокатом Мартином отдыхают в Пуэрто-Рико. После подводного погружения они неожиданно обнаруживают, что по необъяснимой причине в атмосфере исчез кислород, что привело к массовой гибели всех людей. Только вопрос, на одном этом острове или во всем мире? Трое оставшихся в живых людей должны что-то предпринять. Но проблемы возникают совсем с другой стороны. Ибо, захотев новых эмоций, Эвелин начинает флиртовать с Мартином. Как разрешится вопрос в любовном треугольнике в гибнущем мире...

Интересно: Приятный фильм с минимумом актеров. Картина была снята только по одной причине: Роджер Корман в Пуэрто-Рико снимал картину «Существо из проклятого моря» (1961) и у него осталось несколько дней на использование этих декораций и съемочных площадок. Он решил снять еще один фильм. Сценарист Роберт Таун не успевал написать сценарий вовремя. Тогда, чтобы сэкономить деньги, Корман пригласил Тауна сняться в роли адвоката Мартина Джойса, пока он заканчивал сценарий. (horror-movies.ru)
Качество видео: DVDRip
Формат видео: AVI
Видео: 640x320 (2,000), 23,976 fps, XviD build ~1450 kbps avg, 0.295 bit/pixel
Аудио: 48,0 kHz, MP3, 2 channels, ~128.00 kbps avg
Формат субтитров: softsub (SRT)
General
Complete name : C:\Subs\The Last Woman on the Earth\Last Woman on the Earth.avi
Format : AVI
Format/Info : Audio Video Interleave
File size : 729 MiB
Duration : 1h 4mn
Overall bit rate : 1 587 Kbps
Writing application : VirtualDubMod 1.5.10.2 (build 2540/release)
Writing library : VirtualDubMod build 2540/release
Video
ID : 0
Format : MPEG-4 Visual
Format profile : Advanced Simple@L5
Format settings, BVOP : 2
Format settings, QPel : No
Format settings, GMC : No warppoints
Format settings, Matrix : Default (H.263)
Codec ID : XVID
Codec ID/Hint : XviD
Duration : 1h 4mn
Bit rate : 1 450 Kbps
Width : 640 pixels
Height : 320 pixels
Display aspect ratio : 2.000
Frame rate : 23.976 fps
Color space : YUV
Chroma subsampling : 4:2:0
Bit depth : 8 bits
Scan type : Progressive
Compression mode : Lossy
Bits/(Pixel*Frame) : 0.295
Stream size : 666 MiB (91%)
Writing library : XviD 1.2.0.dev47 (UTC 2006-11-01)
Audio
ID : 1
Format : MPEG Audio
Format version : Version 1
Format profile : Layer 3
Codec ID : 55
Codec ID/Hint : MP3
Duration : 1h 4mn
Bit rate mode : Constant
Bit rate : 128 Kbps
Channel(s) : 2 channels
Sampling rate : 48.0 KHz
Compression mode : Lossy
Stream size : 58.8 MiB (8%)
Alignment : Aligned on interleaves
Interleave, duration : 42 ms (1.00 video frame)
Interleave, preload duration : 504 ms
Writing library : LAME3.97
Encoding settings : -m s -V 4 -q 2 -lowpass 17 -b 128
70
00:06:11,771 --> 00:06:13,932
С такими клиентами как ты,
как может быть иначе?
71
00:06:14,807 --> 00:06:18,766
- А у тебя есть подружка?
- Знаешь, я уже не так молод.
72
00:06:27,987 --> 00:06:29,887
Ты на самом деле стареешь.
73
00:06:31,357 --> 00:06:33,757
- Ладно, пусть пока Эвелин переоденется.
- А ты куда?
74
00:06:35,228 --> 00:06:37,253
Пойду, получу свои деньги
и сразу вернусь.
75
00:06:42,502 --> 00:06:43,594
Войдите.
76
00:06:51,677 --> 00:06:52,735
Привет.
77
00:06:53,880 --> 00:06:57,043
Смотрю, вы уже успели переодеться?
78
00:06:59,619 --> 00:07:02,645
- Составите мне компанию?
- Хотелось бы, но...
79
00:07:03,055 --> 00:07:05,182
...мне сперва надо ознакомиться
с бумагами Гарольда.
80
00:07:07,650 --> 00:07:08,200
Мартин...,
81
00:07:10,196 --> 00:07:11,629
...вам нравится своя работа?
82
00:07:12,498 --> 00:07:15,490
- Вам нравится такая жизнь?
- Мне нравится, миссис Гёрн.
83
00:07:15,802 --> 00:07:18,737
- Ваша работа или жизнь?
- То и другое.
84
00:07:20,072 --> 00:07:22,563
- Для вас нет никакой разницы?
- Думаю, нет.
85
00:07:24,310 --> 00:07:25,868
А для Гарольда есть.
86
00:07:27,213 --> 00:07:28,646
Миссис Гёрн, вы не хотите...
87
00:07:30,082 --> 00:07:33,051
...рассказать мне, что вы
думаете о Гарольде?
88
00:07:37,657 --> 00:07:40,285
Я что-то не совсем вас поняла.
89
00:07:51,838 --> 00:07:54,432
Хотите, чтобы я всё вам рассказала, Мартин?
90
00:07:55,808 --> 00:07:57,173
Конечно, это будет даже интересно.



Скачать Последняя.женщина.на.Земле.The.Last.Woman.on.Earth.(Роджер.Корман.Roger.Corman).[1960.постапокалипсис.драма.DVDRip].[цветная.версия].[SUB].torrent без регистрации
Золото ЗОЛОТАЯ РАЗДАЧА! СКАЧАННОЕ НЕ ЗАСЧИТЫВАЕТСЯ! Золото
Дата: Зарегистрирован   [ Тип: внутренний ] Как тут cкачать?
MAGNET ссылка
MAGNET ссылка


Скачать .torrent

15 KB

Статус: проверено DHT
Скачан: торрент - 164 раз, раздача полностью - 33 раз
Размер: 729 MB
Оценка:  - (Голосов: 0)
Поблагодарили: 1
Поделиться ссылкой на эту раздачу с друзьями:
В контактеFacebookОдноклассникиTwitterLivejournalМой МирLiveinternet
 

 
Показать сообщения:    


Вы не можете начинать темы
Вы не можете отвечать на сообщения
Вы не можете редактировать свои сообщения
Вы не можете удалять свои сообщения
Вы не можете голосовать в опросах
Вы не можете прикреплять файлы к сообщениям
Вы можете скачивать файлы